<?xml version="1.0" standalone="no"?>
<!DOCTYPE svg PUBLIC "-//W3C//DTD SVG 1.1//EN" "http://www.w3.org/Graphics/SVG/1.1/DTD/svg11.dtd" >
<svg xmlns="http://www.w3.org/2000/svg">
<metadata>
This is a custom SVG webfont generated by Font Squirrel.
Copyright   : Copyright c 2008 by Jos Buivengaexljbris All rights reserved
Designer    : Jos Buivenga
Foundry     : Jos Buivenga
Foundry URL : httpwwwjosbuivengademonnl
</metadata>
<defs>
<font id="webfontt20F86Ki" horiz-adv-x="1267" >
<font-face units-per-em="2048" ascent="1536" descent="-512" />
<missing-glyph horiz-adv-x="542" />
<glyph unicode="&#xfb00;" horiz-adv-x="1392" d="M170 0v838h-129v206h129v31q0 98 30.5 171t76 113t107.5 64.5t111.5 31.5t100.5 7l88 -6v-221q-23 4 -53 4q-201 0 -201 -176v-19h426v31q0 98 31 171t76 113t107.5 64.5t111.5 31.5t102 7l86 -6v-221q-23 4 -53 4q-201 0 -201 -176v-19h225v-206h-225v-838h-260v838 h-426v-838h-260z" />
<glyph unicode="&#xfb01;" horiz-adv-x="1298" d="M170 0v838h-129v206h129v31q0 98 30.5 171t76 113t107.5 64.5t111.5 31.5t100.5 7l88 -6v-221q-25 4 -59 4q-195 0 -195 -174v-21h555q139 0 139 -139v-641q0 -45 45 -45h80v-219h-245q-74 0 -107 33t-33 106v654q0 45 -45 45h-389v-838h-260zM877 1214v240h225v-240 h-225z" />
<glyph unicode="&#xfb02;" horiz-adv-x="1282" d="M596 1454h375q139 0 139 -139v-1051q0 -45 45 -45h80v-219h-246q-74 0 -106.5 33t-32.5 106v1049q0 45 -45 45h-174q-201 0 -201 -164v-25h223v-206h-223v-838h-260v838h-129v206h129v31q0 98 31.5 171t76 111t106.5 61.5t110.5 29.5t101.5 6z" />
<glyph unicode="&#xfb03;" horiz-adv-x="1986" d="M170 0v838h-129v206h129v31q0 98 30.5 171t76 113t107.5 64.5t111.5 31.5t100.5 7l88 -6v-221q-25 4 -59 4q-195 0 -195 -176v-19h426v31q0 98 31 171t76 113t107.5 64.5t111.5 31.5t102 7l86 -6v-221q-25 4 -57 4q-197 0 -197 -176v-19h555q74 0 106.5 -33.5 t32.5 -105.5v-641q0 -45 45 -45h82v-219h-247q-74 0 -107 33t-33 106v654q0 45 -45 45h-389v-838h-260v838h-426v-838h-260zM1563 1214v240h225v-240h-225z" />
<glyph unicode="&#xfb04;" horiz-adv-x="1970" d="M1284 1454h375q139 0 139 -139v-1051q0 -45 45 -45h80v-219h-246q-74 0 -106.5 33t-32.5 106v1049q0 45 -45 45h-174q-201 0 -201 -164v-25h223v-206h-223v-838h-260v838h-428v-838h-260v838h-129v206h129v33q0 96 30.5 170t74.5 114t105.5 63.5t111 30.5t102.5 7l90 -6 v-221q-25 4 -57 4q-197 0 -197 -174v-21h428v31q0 98 32 171t76 111t106.5 61.5t110.5 29.5t101 6z" />
<glyph unicode="fj" horiz-adv-x="1320" d="M170 0v838h-129v206h129v31q0 98 30.5 171t76 113t107.5 64.5t111.5 31.5t100.5 7l88 -6v-221q-25 4 -59 4q-195 0 -195 -176v-19h592q74 0 106.5 -33.5t32.5 -105.5v-936q0 -100 -32.5 -175t-78.5 -114.5t-109.5 -64.5t-114 -32t-101.5 -7l-78 6v219q18 -4 45 -4 q35 0 65.5 7.5t65.5 24.5t56.5 59t21.5 102v803q0 45 -45 45h-426v-838h-260zM915 1214v240h226v-240h-226z" />
<glyph unicode=" "  horiz-adv-x="542" />
<glyph unicode="&#x09;" horiz-adv-x="542" />
<glyph unicode="&#xa0;" horiz-adv-x="542" />
<glyph unicode="!" horiz-adv-x="679" d="M227 420l-22 1034h270l-20 -1034h-228zM215 0v242h252v-242h-252z" />
<glyph unicode="&#x22;" horiz-adv-x="755" d="M444 1053v428h193v-428h-193zM117 1053v428h192v-428h-192z" />
<glyph unicode="#" horiz-adv-x="1433" d="M244 0l65 383h-243l30 186h244l51 287h-239l30 188h242l72 410h209l-72 -410h278l72 410h209l-72 -410h248l-33 -188h-245l-52 -287h244l-31 -186h-245l-66 -383h-209l68 383h-281l-65 -383h-209zM549 569h280l52 287h-281z" />
<glyph unicode="$" horiz-adv-x="1146" d="M78 268l186 156q4 -8 13.5 -22.5t42 -50.5t68.5 -62.5t93.5 -49t116.5 -22.5q92 0 150.5 46t58.5 126q0 51 -38 93t-98.5 74t-133 63.5t-145.5 72.5t-133 91.5t-98 127t-38 172.5q0 152 107.5 256.5t277.5 130.5v191h182v-191q137 -18 238.5 -87.5t101.5 -190.5v-135 h-242v65q0 49 -54 81t-128 32q-92 0 -152.5 -42t-60.5 -106q0 -70 71 -122t171 -93t200.5 -92t171 -148t70.5 -235q0 -154 -106.5 -270.5t-280.5 -142.5v-191h-182v189q-244 33 -397 237z" />
<glyph unicode="%" horiz-adv-x="1689" d="M446.5 831q-139.5 0 -236.5 94.5t-97 229.5q0 133 98 228.5t235.5 95.5t236.5 -95.5t99 -228.5q0 -135 -98 -229.5t-237.5 -94.5zM164 0l1116 1454h240l-1117 -1454h-239zM446.5 1020q57.5 0 97.5 39t40 96q0 55 -40 95t-97.5 40t-96.5 -40t-39 -95q0 -57 39 -96 t96.5 -39zM907 297q0 133 97.5 228.5t236.5 95.5q137 0 235.5 -95.5t98.5 -228.5t-97.5 -227.5t-236.5 -94.5t-236.5 94.5t-97.5 227.5zM1106 299q0 -57 39 -96t96 -39t97 39t40 96q0 55 -40 95t-97 40t-96 -40t-39 -95z" />
<glyph unicode="&#x26;" horiz-adv-x="1333" d="M86 426q0 113 64.5 214t177.5 134v4q-8 2 -19.5 9.5t-42 33t-54.5 57t-43 90t-19 128.5q0 172 124.5 277.5t317.5 105.5q51 0 101 -6.5t75 -12.5l25 -6l-64 -209q-51 12 -98 12q-96 0 -155.5 -55t-59.5 -139q0 -76 51 -134.5t170 -58.5h219v174h260v-174h174v-229h-174 v-172q0 -225 -136 -359.5t-374 -134.5q-227 0 -373.5 129t-146.5 322zM356 428q0 -88 69 -149.5t181 -61.5q119 0 184.5 67.5t65.5 198.5v158h-219q-131 0 -206 -54.5t-75 -158.5z" />
<glyph unicode="'" horiz-adv-x="430" d="M117 1053v428h196v-428h-196z" />
<glyph unicode="(" horiz-adv-x="718" d="M166 668q0 492 240 850h221q-229 -383 -230 -832q0 -469 236 -881h-221q-246 361 -246 863z" />
<glyph unicode=")" horiz-adv-x="718" d="M86 -195q236 412 236 881q0 449 -230 832h221q242 -360 242 -850q0 -502 -246 -863h-223z" />
<glyph unicode="*" horiz-adv-x="989" d="M350 657l-186 136l170 204v4l-258 64l69 221l248 -100l-18 268h235l-18 -268l248 100l73 -219l-262 -66v-4l172 -202l-186 -138l-141 226h-4z" />
<glyph unicode="+" d="M86 483v203h442v485h211v-485h443v-203h-443v-483h-211v483h-442z" />
<glyph unicode="," horiz-adv-x="542" d="M182 264h250l-196 -479h-191z" />
<glyph unicode="-" horiz-adv-x="882" d="M133 471v227h617v-227h-617z" />
<glyph unicode="." horiz-adv-x="542" d="M145 0v260h252v-260h-252z" />
<glyph unicode="/" horiz-adv-x="751" d="M-2 -86l520 1614h223l-522 -1614h-221z" />
<glyph unicode="0" horiz-adv-x="1253" d="M626.5 -25q-143.5 0 -249 57.5t-163.5 164t-86 237.5t-28 295q0 750 526.5 750t526.5 -750q0 -164 -27.5 -295t-86 -237.5t-164 -164t-249 -57.5zM627 217q256 0 256 512q0 506 -256 506t-256 -506q0 -512 256 -512z" />
<glyph unicode="1" horiz-adv-x="1091" d="M131 0v227h313v807l2 99h-4q-16 -35 -63 -82l-117 -111l-156 164l365 350h242v-1227h313v-227h-895z" />
<glyph unicode="2" horiz-adv-x="1189" d="M68 193q0 106 38.5 193t101 144.5t138.5 105.5t152.5 90t139 86t101.5 102.5t39 129.5q0 86 -58 137.5t-153 51.5q-82 0 -136 -36t-54 -79v-63h-242v143q0 90 73 156.5t171 95.5t199 29q199 0 335 -117t136 -313q0 -137 -73 -244t-176.5 -171.5t-205.5 -118.5 t-175 -116.5t-73 -134.5q0 -37 55 -37h426q45 0 45 45v88h242v-221q0 -74 -32.5 -106.5t-106.5 -32.5h-758q-92 0 -120.5 42t-28.5 151z" />
<glyph unicode="3" horiz-adv-x="1138" d="M53 180l135 201l17 -16q10 -10 47 -38t75 -48.5t98 -37t120 -16.5q109 0 178.5 61.5t69.5 155.5q0 96 -78 154.5t-197 58.5h-102l-54 133l246 330q49 74 97 111v4q-45 -6 -130 -6h-182q-45 0 -45 -45v-88h-242v221q0 74 28 106.5t99 32.5h791v-166l-334 -418 q158 -25 266.5 -136t108.5 -288q0 -193 -140.5 -332t-377.5 -139q-266 0 -461 172z" />
<glyph unicode="4" horiz-adv-x="1206" d="M37 367v170l602 917h315v-860h224v-227h-224v-367h-268v367h-649zM690 594v403l10 158h-4q-41 -78 -78 -131l-227 -336l-74 -96v-4q59 6 127 6h246z" />
<glyph unicode="5" horiz-adv-x="1218" d="M96 176l135 203q4 -6 14.5 -16.5t43.5 -37t69.5 -47t94 -37t116.5 -16.5q119 0 193 70t74 172q0 117 -91.5 182.5t-222.5 65.5q-72 0 -140.5 -16.5t-100.5 -32.5l-33 -17l-94 47l53 619q6 74 36.5 106.5t100.5 32.5h537q139 0 139 -139v-221h-244v88q0 45 -45 45h-239 q-41 0 -46 -45l-18 -201l-10 -68h4q68 27 153 27q244 0 388.5 -136t144.5 -341q0 -201 -146.5 -345.5t-392.5 -144.5q-258 0 -440 170z" />
<glyph unicode="6" horiz-adv-x="1177" d="M631 -25q-238 0 -400.5 182.5t-162.5 493.5q0 119 25.5 234.5t80.5 223.5t132 189.5t188.5 131t242.5 49.5q182 0 299 -62l-78 -227q-94 45 -204 45q-160 0 -258.5 -113.5t-126.5 -281.5h4q37 47 113.5 76.5t156.5 29.5q209 0 337 -140t128 -343q0 -207 -133 -347.5 t-344 -140.5zM344 571q0 -137 86 -245.5t199 -108.5q100 0 159.5 69.5t59.5 176.5q0 115 -70.5 190.5t-195.5 75.5q-98 0 -168 -46t-70 -112z" />
<glyph unicode="7" horiz-adv-x="1101" d="M96 0l600 1094q49 90 88 133v4q-27 -4 -100 -4h-350q-45 0 -45 -45v-88h-244v221q0 74 28.5 106.5t98.5 32.5h909v-184l-692 -1270h-293z" />
<glyph unicode="8" horiz-adv-x="1193" d="M74 420q0 63 22.5 123.5t56 102.5t66.5 74t55 46l23 16v4l-17 12q-11 7 -39 33.5t-49.5 58.5t-39 82t-17.5 105q0 164 126 283t341 119q209 0 338 -115t129 -289q0 -180 -141 -315l-17 -15v-4q201 -127 201 -333q0 -174 -144.5 -303.5t-373.5 -129.5q-221 0 -370.5 125 t-149.5 320zM592 881q74 -31 96 -31q37 0 80 65.5t43 141.5q0 82 -57.5 130t-151.5 48q-96 0 -151.5 -47t-55.5 -117t50.5 -111.5t146.5 -78.5zM344 436q0 -98 71.5 -158.5t178.5 -60.5q102 0 175 57.5t73 145.5q0 70 -52.5 114t-156.5 87q-111 49 -131 49q-43 0 -100.5 -73 t-57.5 -161z" />
<glyph unicode="9" horiz-adv-x="1177" d="M139 37l78 227q94 -47 205 -47q160 0 258 113.5t127 283.5h-4q-35 -47 -113 -76.5t-158 -29.5q-209 0 -336.5 140t-127.5 343q0 205 133 346.5t346 141.5q236 0 398.5 -182.5t162.5 -493.5q0 -119 -25.5 -234.5t-81 -223t-132 -189.5t-188.5 -131.5t-243 -49.5 q-182 1 -299 62zM596 725q96 0 165.5 45t69.5 113q0 137 -86 244.5t-198 107.5q-100 0 -159.5 -68.5t-59.5 -175.5q0 -115 70.5 -190.5t197.5 -75.5z" />
<glyph unicode=":" horiz-adv-x="626" d="M188 784v260h250v-260h-250zM188 0v260h250v-260h-250z" />
<glyph unicode=";" horiz-adv-x="626" d="M190 784v260h250v-260h-250zM72 -215l112 479h248l-168 -479h-192z" />
<glyph unicode="&#x3c;" d="M131 502v168l985 438v-227l-710 -293v-4l710 -293v-228z" />
<glyph unicode="=" d="M135 694v201h1000v-201h-1000zM135 274v201h1000v-201h-1000z" />
<glyph unicode="&#x3e;" d="M145 63v228l711 293v4l-711 293v227l985 -438v-168z" />
<glyph unicode="?" horiz-adv-x="974" d="M297 420v98q0 82 35 150.5t85 114.5l99 88q49 42 84 93.5t35 108.5q0 72 -57.5 121t-141.5 49q-51 0 -106.5 -21.5t-83.5 -41.5l-29 -23l-143 178q16 16 46 41t130 66t209 41q182 0 314 -105.5t132 -279.5q0 -94 -37 -170t-89 -125t-104 -93t-89 -97.5t-37 -112.5v-80 h-252zM297 0v242h252v-242h-252z" />
<glyph unicode="@" horiz-adv-x="1607" d="M78 492q0 319 222 541t548 222q293 0 428 -124.5t135 -321.5v-512h150v-186h-568q-199 0 -319.5 112.5t-120.5 268.5q0 154 120 264t320 110h174q-2 80 -90 130.5t-221 50.5q-219 0 -370.5 -166t-151.5 -389q0 -231 152.5 -390t402.5 -159v-203q-360 0 -585.5 215 t-225.5 537zM811 498q0 -84 55.5 -142.5t143.5 -58.5h157v401h-153q-90 0 -146.5 -58t-56.5 -142z" />
<glyph unicode="A" horiz-adv-x="1380" d="M23 0v227h32q49 0 64 45l432 1182h280l431 -1182q14 -45 63 -45h33v-227h-160q-76 0 -111.5 24.5t-60.5 94.5l-90 254h-492l-90 -254q-25 -70 -59.5 -94.5t-110.5 -24.5h-161zM506 594h368l-124 364l-58 218h-4q-31 -137 -57 -218z" />
<glyph unicode="B" horiz-adv-x="1288" d="M201 139v1088h-133v227h628q201 0 326 -99.5t125 -275.5q0 -113 -51.5 -192.5t-124.5 -118.5v-4q113 -33 173 -129t60 -213q0 -207 -142 -314.5t-360 -107.5h-362q-72 0 -105.5 32.5t-33.5 106.5zM469 860h229q82 0 129 52.5t47 134t-47 131t-133 49.5h-225v-367z M469 272q0 -45 45 -45h209q96 0 150.5 58.5t54.5 152.5q0 92 -55.5 150.5t-149.5 58.5h-254v-375z" />
<glyph unicode="C" horiz-adv-x="1452" d="M61 739q0 315 211 527.5t527 212.5q78 0 166 -17.5t178 -52.5t148.5 -101.5t58.5 -154.5v-162h-244v82q0 74 -95.5 115t-205.5 41q-201 0 -333 -133t-132 -357q0 -213 137 -363.5t336 -150.5q78 0 150.5 19.5t123 48.5t90.5 57.5t58 46.5l18 21l142 -193 q-8 -10 -24.5 -26.5t-74 -59.5t-120 -76.5t-163 -60.5t-204.5 -27q-330 0 -539 218t-209 546z" />
<glyph unicode="D" horiz-adv-x="1464" d="M203 139v1088h-133v227h592q340 0 540.5 -192.5t200.5 -532.5t-201 -534.5t-540 -194.5h-320q-74 0 -106.5 32.5t-32.5 106.5zM471 272q0 -45 45 -45h131q221 0 349 130t128 372q0 238 -129 368t-348 130h-176v-955z" />
<glyph unicode="E" horiz-adv-x="1183" d="M203 139v1088h-133v227h878q139 0 139 -139v-221h-243v88q0 45 -45 45h-328v-381h471v-228h-471v-346q0 -45 45 -45h336q45 0 45 45v88h244v-221q0 -74 -34 -106.5t-106 -32.5h-659q-74 0 -106.5 32.5t-32.5 106.5z" />
<glyph unicode="F" horiz-adv-x="1077" d="M203 0v1227h-133v227h829q74 0 106.5 -34t32.5 -105v-221h-241v88q0 45 -45 45h-281v-412h465v-227h-465v-588h-268z" />
<glyph unicode="G" horiz-adv-x="1519" d="M63 735q0 315 212 529.5t528 214.5q100 0 191 -19.5t150.5 -46.5t103.5 -53.5t65 -44.5l20 -21l-151 -192q-16 14 -48 35.5t-129.5 57.5t-195.5 36q-195 0 -331 -138.5t-136 -355.5q0 -231 138 -371.5t339 -140.5q203 0 352 135l17 17v108q0 45 -45 45h-88v228h235 q74 0 107 -33t33 -104v-621h-230v70l2 61h-4q-6 -6 -18.5 -16.5t-54.5 -38t-88 -48t-118.5 -37t-148.5 -16.5q-295 0 -501 209t-206 551z" />
<glyph unicode="H" horiz-adv-x="1583" d="M203 0v1182q0 45 -45 45h-88v227h262q74 0 106.5 -34t32.5 -105v-477h641v477q0 139 139 139h262v-227h-88q-45 0 -45 -45v-1182h-268v610h-641v-610h-268z" />
<glyph unicode="I" horiz-adv-x="700" d="M78 0v227h145v1000h-145v227h545v-227h-146v-1000h146v-227h-545z" />
<glyph unicode="J" horiz-adv-x="1103" d="M41 430v84h268v-59q0 -121 54.5 -175.5t136.5 -54.5t135 53.5t53 163.5v740q0 45 -45 45h-352v227h526q139 0 139 -139v-885q0 -223 -135 -339t-323 -116q-186 0 -321.5 117t-135.5 338z" />
<glyph unicode="K" horiz-adv-x="1298" d="M203 0v1182q0 45 -45 45h-88v227h262q74 0 106.5 -34t32.5 -105v-453h102q90 0 117 47l293 545h295l-328 -598q-45 -82 -92 -106v-5q49 -12 94 -100l185 -371q23 -47 102 -47h39v-227h-154q-86 0 -127 20.5t-75 88.5l-238 477q-16 33 -45 41t-82 8h-86v-635h-268z" />
<glyph unicode="L" horiz-adv-x="1142" d="M203 139v1043q0 45 -45 45h-88v227h262q74 0 106.5 -34t32.5 -105v-1043q0 -45 45 -45h318q45 0 45 45v88h243v-221q0 -74 -32.5 -106.5t-106.5 -32.5h-641q-74 0 -106.5 32.5t-32.5 106.5z" />
<glyph unicode="M" horiz-adv-x="1781" d="M37 0v227h63q41 0 45 45l95 1182h278l299 -692l72 -195h4q37 111 72 195l299 692h278l94 -1182q4 -45 45 -45h64v-227h-232q-72 0 -101.5 31.5t-35.5 107.5l-49 647q-5 55 -5 121q0 49 3 105h-4q-43 -143 -80 -226l-242 -536h-217l-241 536q-16 37 -37 93.5t-33 95.5 l-10 39h-4q3 -56 2 -106q0 -66 -4 -122l-47 -647q-6 -76 -37 -107.5t-103 -31.5h-231z" />
<glyph unicode="N" horiz-adv-x="1576" d="M70 0v227h88q45 0 45 45v1182h241l551 -805q57 -84 121 -205h4q-14 121 -14 205v666q0 72 32.5 105.5t106.5 33.5h262v-227h-88q-45 0 -45 -45v-1182h-239l-553 803q-57 82 -121 205h-4q14 -121 14 -205v-664q0 -74 -32.5 -106.5t-106.5 -32.5h-262z" />
<glyph unicode="O" horiz-adv-x="1626" d="M61 737q0 313 216.5 527.5t536 214.5t535.5 -214t216 -528q0 -322 -216 -542t-535.5 -220t-536 220t-216.5 542zM340 737q0 -217 137 -364.5t336 -147.5t336 147.5t137 364.5q0 207 -137 349.5t-336 142.5t-336 -142.5t-137 -349.5z" />
<glyph unicode="P" horiz-adv-x="1239" d="M203 0v1227h-133v227h665q205 0 334 -131t129 -342t-129 -345t-334 -134h-264v-502h-268zM471 731h215q113 0 175.5 67.5t62.5 182.5q0 113 -61.5 179.5t-172.5 66.5h-219v-496z" />
<glyph unicode="Q" horiz-adv-x="1626" d="M61 735q0 313 215.5 527.5t534.5 214.5q322 0 538 -214t216 -528q0 -248 -160 -459l158 -143l-160 -174l-158 156q-182 -139 -434 -140q-317 0 -533.5 220.5t-216.5 539.5zM340 735q0 -215 137 -362.5t334 -147.5q150 0 240 70l-148 137l158 174l147 -147q78 123 78 276 q0 209 -137 350.5t-338 141.5q-199 0 -335 -141.5t-136 -350.5z" />
<glyph unicode="R" horiz-adv-x="1294" d="M203 0v1227h-133v227h651q203 0 328 -117.5t125 -320.5q0 -92 -29 -168t-71 -119t-79 -66.5t-63 -29.5v-4q45 -20 72 -74l141 -281q25 -47 102 -47h27v-227h-141q-84 0 -126 20.5t-77 88.5l-187 366q-23 41 -50 54.5t-87 13.5h-135v-543h-268zM471 772h213 q102 0 158.5 60.5t56.5 168.5q0 106 -56.5 166t-154.5 60h-217v-455z" />
<glyph unicode="S" horiz-adv-x="1124" d="M66 201l151 188q6 -6 17.5 -18.5t48 -42t75.5 -52t96.5 -41t114.5 -18.5q88 0 148.5 46t60.5 126q0 49 -38 91t-98 74t-133 63.5t-145.5 72.5t-133 89t-98.5 123t-38 167q0 176 137.5 293t348.5 117q94 0 188 -27t169 -95.5t75 -164.5v-135h-242v65q0 49 -58.5 81 t-133.5 32q-92 0 -152.5 -43t-60.5 -113q0 -49 37.5 -89t98 -69.5t133.5 -60.5t145.5 -69.5t133 -87t98.5 -126t38 -174.5q0 -180 -131.5 -304t-352.5 -124q-266 0 -461 185z" />
<glyph unicode="T" horiz-adv-x="1337" d="M535 0v1227h-224q-45 0 -45 -45v-88h-235v229q0 72 28.5 101.5t102.5 29.5h1014q74 0 102.5 -29.5t28.5 -101.5v-229h-236v88q0 45 -45 45h-223v-1227h-268z" />
<glyph unicode="U" horiz-adv-x="1515" d="M186 518v664q0 45 -45 45h-88v227h262q74 0 107 -34t33 -105v-789q0 -141 81.5 -221t221 -80t221.5 80t82 223v787q0 72 32.5 105.5t106.5 33.5h262v-227h-88q-45 0 -45 -45v-664q0 -242 -156.5 -392.5t-412.5 -150.5q-258 0 -416 150.5t-158 392.5z" />
<glyph unicode="V" horiz-adv-x="1400" d="M559 0l-436 1182q-16 45 -64 45h-36v227h170q76 0 111.5 -24.5t60.5 -94.5l278 -811q12 -37 26.5 -90t22.5 -88l6 -35h4q27 131 56 213l278 811q25 70 59.5 94.5t110.5 24.5h172v-227h-39q-47 0 -63 -45l-434 -1182h-283z" />
<glyph unicode="W" horiz-adv-x="2031" d="M438 0l-301 1182q-10 45 -65 45h-39v227h174q80 0 122 -25.5t58 -93.5l199 -866l24 -154h4q8 70 31 154l264 981h228l249 -981l29 -154h4q6 72 25 154l201 866q14 68 56 93.5t122 25.5h176v-227h-39q-55 0 -66 -45l-303 -1182h-309l-221 823q-25 92 -37 181h-4 q-12 -86 -39 -181l-231 -823h-312z" />
<glyph unicode="X" horiz-adv-x="1255" d="M10 0l451 737l-271 441q-18 33 -34.5 41t-53.5 8h-61v227h168q74 0 111.5 -21.5t74.5 -84.5l140 -242l92 -176h4q39 92 88 176l141 242q37 63 76 84.5t113 21.5h165v-227h-61q-35 0 -52.5 -9.5t-35.5 -39.5l-272 -441l452 -737h-301l-225 383l-92 170h-4 q-39 -86 -88 -170l-224 -383h-301z" />
<glyph unicode="Y" horiz-adv-x="1259" d="M496 0v635l-344 543q-20 31 -36 40t-48 9h-48v227h138q74 0 112.5 -20.5t77.5 -85.5l193 -320l88 -164h4q37 78 88 164l190 320q39 66 78 86t113 20h137v-227h-47q-33 0 -48.5 -9.5t-35.5 -39.5l-344 -543v-635h-268z" />
<glyph unicode="Z" horiz-adv-x="1204" d="M35 0v170l653 926q59 82 111 131v4q-43 -4 -111 -4h-352q-45 0 -45 -45v-88h-244v221q0 72 33 105.5t106 33.5h944v-168l-653 -928q-59 -84 -110 -131v-4q43 4 110 4h397q45 0 46 45v88h241v-221q0 -74 -32.5 -106.5t-106.5 -32.5h-987z" />
<glyph unicode="[" horiz-adv-x="720" d="M188 -55v1433q0 74 33 107t107 33h264v-189h-137q-45 0 -45 -45v-1245q0 -45 45 -45h137v-189h-264q-74 0 -107 33t-33 107z" />
<glyph unicode="\" horiz-adv-x="745" d="M532 -86l-522 1614h223l523 -1614h-224z" />
<glyph unicode="]" horiz-adv-x="720" d="M129 -6h135q45 0 45 45v1245q0 45 -45 45h-135v189h264q74 0 106.5 -33t32.5 -107v-1433q0 -74 -32.5 -107t-106.5 -33h-264v189z" />
<glyph unicode="^" d="M133 502l412 952h164l411 -952h-225l-268 678l-269 -678h-225z" />
<glyph unicode="_" horiz-adv-x="1169" d="M10 0h1149v-201h-1149v201z" />
<glyph unicode="`" horiz-adv-x="817" d="M360 1550l-213 279h250l156 -279h-193z" />
<glyph unicode="a" horiz-adv-x="1146" d="M68 301q0 78 32.5 139.5t91 98t122 62.5t140 36t129 14t105.5 4h33v9q0 111 -46 157.5t-147 46.5q-49 0 -94 -15t-45 -54v-56h-242v111q0 68 42 115t111 66.5t123 26.5t107 7q451 0 451 -416v-389q0 -45 45 -45h82v-219h-234q-68 0 -100.5 31.5t-32.5 83.5l2 45h-4 l-10 -21q-6 -12 -32.5 -44t-59.5 -56.5t-90.5 -44t-122.5 -19.5q-147 0 -251.5 88t-104.5 238zM330 313q0 -55 41 -95t116 -40q100 0 169 87t69 188v24h-45q-350 0 -350 -164z" />
<glyph unicode="b" horiz-adv-x="1265" d="M162 0v1188q0 45 -45 45h-82v221h248q139 0 139 -139v-303l-4 -88h4q4 6 11 15t35 34.5t61.5 45t89 35t116.5 15.5q211 0 337 -151.5t126 -395.5q0 -246 -134 -396.5t-345 -150.5q-96 0 -174 37t-107 74l-30 37h-5q4 -29 5 -70v-53h-246zM414 516q0 -131 68.5 -226 t191.5 -95q111 0 186.5 87t75.5 236q0 147 -71.5 237.5t-188.5 90.5q-111 0 -186.5 -83t-75.5 -247z" />
<glyph unicode="c" horiz-adv-x="1101" d="M66 522q0 229 155.5 388t415.5 159q80 0 160 -19.5t149.5 -75.5t69.5 -140v-123h-230v57q0 39 -47 60.5t-102 21.5q-135 0 -222 -92t-87 -234q0 -152 95 -236.5t230 -84.5q160 0 299 131l11 10l108 -180q-6 -8 -18.5 -20.5t-54.5 -45t-89 -57.5t-122.5 -45.5 t-155.5 -20.5q-252 0 -408.5 157t-156.5 390z" />
<glyph unicode="d" horiz-adv-x="1273" d="M66 522q0 246 133 396.5t342 150.5q199 0 290 -113l11 -14h4q-2 27 -2 62v184q0 45 -45 45h-82v221h248q139 0 139 -139v-1051q0 -45 45 -45h80v-219h-240q-129 0 -129 106v39h-4q-4 -6 -11 -18t-35 -41t-61.5 -51.5t-92 -41t-126.5 -18.5q-211 0 -337.5 151.5 t-126.5 395.5zM588 195q111 0 186.5 82.5t75.5 246.5q0 131 -67.5 226.5t-190.5 95.5q-113 0 -187.5 -87t-74.5 -237q0 -147 71.5 -237t186.5 -90z" />
<glyph unicode="e" horiz-adv-x="1140" d="M66 522q0 242 147 394.5t383 152.5q217 0 340 -140.5t123 -355.5l-6 -96h-721q14 -133 102 -206.5t211 -73.5q74 0 147.5 28.5t108.5 57.5l37 30l109 -180q-6 -6 -18.5 -17.5t-54.5 -38t-87 -47t-116 -38t-144 -17.5q-252 0 -406.5 159t-154.5 388zM340 657h453 q-2 92 -58.5 151.5t-138.5 59.5q-100 0 -166.5 -56.5t-89.5 -154.5z" />
<glyph unicode="f" horiz-adv-x="706" d="M170 0v838h-129v206h129v31q0 98 30.5 171t76 113t107.5 64.5t111.5 31.5t100.5 7l88 -6v-221q-23 4 -53 4q-201 0 -201 -170v-25h223v-206h-223v-838h-260z" />
<glyph unicode="g" horiz-adv-x="1253" d="M66 549q0 225 122.5 372.5t339.5 147.5q68 0 126.5 -15.5t92 -37t59 -43t34.5 -35.5l10 -16h4v26q0 39 28.5 67.5t86.5 28.5h241v-221h-80q-45 0 -45 -41v-719q0 -129 -47 -227t-127 -154.5t-175 -84t-201 -27.5q-201 0 -371 90l80 205q129 -70 288 -70q129 0 212 61.5 t83 194.5v49l2 56h-4q-94 -135 -290 -136q-217 0 -343 153t-126 376zM590 240q106 0 175 71.5t69 235.5q0 301 -261 301q-117 0 -180 -78t-63 -213q0 -141 68.5 -229t191.5 -88z" />
<glyph unicode="h" horiz-adv-x="1310" d="M162 0v1188q0 45 -45 45h-82v221h248q139 0 139 -137v-367l-4 -88h4q41 84 136 145.5t222 61.5q365 0 365 -397v-408q0 -45 45 -45h82v-219h-248q-72 0 -104.5 33t-32.5 106v479q0 104 -37 158.5t-129 54.5q-100 0 -176 -60t-107 -157q-16 -55 -16 -135v-479h-260z" />
<glyph unicode="i" horiz-adv-x="612" d="M190 1214v240h226v-240h-226zM178 139v639q0 45 -45 45h-82v221h248q72 0 104.5 -33.5t32.5 -105.5v-641q0 -45 45 -45h82v-219h-248q-72 0 -104.5 32.5t-32.5 106.5z" />
<glyph unicode="j" horiz-adv-x="624" d="M225 1214v240h228v-240h-228zM-39 -199q18 -4 45 -4q35 0 65.5 7.5t65.5 24.5t56.5 59t21.5 102v788q0 45 -45 45h-82v221h248q74 0 106.5 -33.5t32.5 -105.5v-936q0 -100 -32.5 -175t-79 -114.5t-110 -64.5t-113.5 -32t-101 -7l-78 6v219z" />
<glyph unicode="k" horiz-adv-x="1132" d="M162 0v1188q0 45 -45 45h-82v221h248q76 0 107.5 -24.5t31.5 -94.5v-659h78q72 0 98 39l213 329h289l-264 -393q-20 -29 -40 -49t-30 -27l-8 -6v-4q37 -14 73 -82l119 -225q20 -39 86 -39h70v-219h-193q-68 0 -100.5 17.5t-62.5 72.5l-175 328q-23 39 -96 39h-57v-457 h-260z" />
<glyph unicode="l" horiz-adv-x="595" d="M164 139v1049q0 45 -45 45h-82v221h248q139 0 139 -139v-1051q0 -45 45 -45h80v-219h-246q-74 0 -106.5 32.5t-32.5 106.5z" />
<glyph unicode="m" horiz-adv-x="1931" d="M170 0v778q0 45 -45 45h-82v221h240q137 0 137 -116v-31l-2 -45h4q41 86 132 151.5t206 65.5q238 0 305 -215h4q45 90 141.5 152.5t214.5 62.5q342 0 342 -397v-408q0 -45 45 -45h80v-219h-245q-74 0 -107 33t-33 106v484q0 102 -29.5 155t-113.5 53q-92 0 -159.5 -68.5 t-90.5 -170.5q-16 -55 -16 -133v-459h-260v623q0 100 -28 154t-114 54q-94 0 -159.5 -67.5t-92.5 -173.5q-16 -66 -16 -131v-459h-258z" />
<glyph unicode="n" horiz-adv-x="1316" d="M170 0v778q0 45 -45 45h-82v221h240q137 0 137 -116v-31l-4 -45h4q43 86 135 151.5t233 65.5q365 0 365 -397v-408q0 -45 45 -45h82v-219h-248q-74 0 -106.5 33t-32.5 106v479q0 104 -36 158.5t-128 54.5q-102 0 -177 -58t-103 -155q-20 -61 -21 -139v-479h-258z" />
<glyph unicode="o" horiz-adv-x="1275" d="M66 522.5q0 237.5 164.5 392t406.5 154.5t407.5 -154.5t165.5 -392t-164.5 -392.5t-408.5 -155q-242 0 -406.5 155t-164.5 392.5zM328 522q0 -143 90 -234t219 -91q131 0 221 91t90 234q0 141 -91 233.5t-220 92.5t-219 -92.5t-90 -233.5z" />
<glyph unicode="p" horiz-adv-x="1271" d="M170 -410v1188q0 45 -45 45h-82v221h231q131 0 132 -100v-41h4l11 18q7 11 35.5 39.5t62.5 50t94.5 40t127.5 18.5q211 0 338 -151.5t127 -395.5q0 -246 -135 -396.5t-344 -150.5q-57 0 -109.5 14.5t-85 35t-58 40t-36.5 33.5l-10 15h-4q4 -37 4 -90v-433h-258zM422 516 q0 -131 67.5 -226t190.5 -95q113 0 188.5 87t75.5 236q0 147 -71.5 237.5t-188.5 90.5q-111 0 -186.5 -83t-75.5 -247z" />
<glyph unicode="q" horiz-adv-x="1273" d="M68 522q0 246 132 396.5t341 150.5q203 0 309 -133l14 -21h4v37q0 92 133 92h230v-221h-82q-45 0 -45 -45v-1188h-260v443l4 90h-4l-11 -17q-7 -10 -35 -34.5t-60.5 -44t-88 -36t-119.5 -16.5q-211 0 -336.5 151.5t-125.5 395.5zM590 195q111 0 186.5 82.5t75.5 246.5 q0 131 -68.5 226.5t-191.5 95.5q-111 0 -186.5 -87t-75.5 -237q0 -147 71.5 -237t188.5 -90z" />
<glyph unicode="r" horiz-adv-x="843" d="M170 0v778q0 45 -45 45h-82v221h238q139 0 139 -126v-62l-4 -65h4q37 117 126 192.5t206 75.5l47 -4v-256q-27 4 -64 4q-92 0 -172 -55.5t-112 -163.5q-23 -80 -23 -170v-414h-258z" />
<glyph unicode="s" horiz-adv-x="958" d="M51 162l123 170q14 -16 42 -42t109 -69t160 -43q63 0 102.5 25.5t39.5 77.5q0 39 -56.5 72.5t-137.5 64.5t-163 70.5t-138 110.5t-56 165q0 150 115.5 227.5t289.5 77.5q59 0 117.5 -10t117 -34t95.5 -69t37 -104v-109h-230v52q0 35 -40.5 54t-90.5 19 q-72 0 -113.5 -24.5t-41.5 -69.5t57 -78.5t139 -62.5t163 -66t138.5 -106.5t57.5 -165.5q0 -145 -114 -232.5t-288 -87.5q-127 0 -235.5 47.5t-153.5 92.5z" />
<glyph unicode="t" horiz-adv-x="757" d="M174 383v455h-135v206h141v285h254v-285h238v-206h-238v-422q0 -113 64.5 -155t142.5 -42l47 4v-227q-33 -6 -80 -6q-53 0 -102 7t-112.5 31.5t-109.5 64.5t-78 115t-32 175z" />
<glyph unicode="u" horiz-adv-x="1306" d="M166 373v405q0 45 -45 45h-82v221h248q72 0 104.5 -32.5t32.5 -104.5v-481q0 -104 36 -158.5t126 -54.5q135 0 214 102.5t79 249.5v479h260v-780q0 -45 45 -45h82v-219h-240q-137 0 -137 117v28l2 48h-4q-41 -90 -137.5 -154t-223.5 -64q-360 1 -360 398z" />
<glyph unicode="v" horiz-adv-x="1116" d="M403 0l-299 786q-14 37 -57 37h-22v221h149q63 0 98 -22.5t56 -75.5l196 -549l39 -149h4q16 88 37 149l197 549q20 53 55 75.5t98 22.5h140v-221h-25q-43 0 -57 -37l-299 -786h-310z" />
<glyph unicode="w" horiz-adv-x="1710" d="M356 0l-250 786q-12 37 -57 37h-29v221h179q66 0 99.5 -23.5t47.5 -82.5l154 -580l20 -110h4q8 55 25 110l192 682h230l194 -682l23 -110h4q6 55 20 110l152 580q14 59 48 82.5t99 23.5h179v-221h-29q-43 0 -57 -37l-250 -786h-293l-178 596l-25 113h-4q-10 -57 -27 -113 l-176 -596h-295z" />
<glyph unicode="x" horiz-adv-x="1048" d="M23 0l339 528l-172 260q-23 35 -79 35h-76v221h182q66 0 100.5 -19t69.5 -79l102 -172l33 -67h4q18 41 33 67l103 172q35 59 68.5 78.5t100.5 19.5h181v-221h-74q-57 0 -80 -35l-174 -260l342 -528h-289l-182 291l-29 55h-4q-16 -33 -30 -55l-181 -291h-288z" />
<glyph unicode="y" horiz-adv-x="1132" d="M102 -139q63 -72 150 -72q117 0 172 133l35 80l-348 784q-14 37 -56 37h-30v221h172q55 0 85.5 -22.5t51.5 -75.5l205 -522l36 -139h5q16 86 34 139l179 522q33 98 139 98h176v-221h-31q-45 0 -59 -37l-375 -944q-53 -135 -153.5 -203.5t-223.5 -68.5q-152 0 -258 100 l-6 6z" />
<glyph unicode="z" horiz-adv-x="1046" d="M55 0v139l482 588q20 27 42.5 50.5t34.5 33.5l11 12v4q-31 -4 -97 -4h-188q-45 0 -45 -45v-59h-236v186q0 72 33 105.5t107 33.5h766v-141l-482 -588l-88 -96v-4q31 6 99 6h229q45 0 45 45v58h236v-185q0 -74 -33 -106.5t-105 -32.5h-811z" />
<glyph unicode="{" horiz-adv-x="720" d="M223 145v199q0 166 -137 205l-37 8v227q6 0 18.5 2t42 14.5t53 34t42 64.5t18.5 102v177q0 88 28 154.5t65.5 102t92 56t94.5 27t83 6.5l63 -2v-193q-16 2 -37 2q-37 0 -69.5 -9t-65.5 -51t-33 -114v-223q0 -172 -139 -248l-29 -12v-4q6 -2 17.5 -6.5t41.5 -23.5 t51.5 -46t39.5 -75t18 -107v-246q0 -55 17.5 -93t47.5 -53.5t53.5 -21.5t49.5 -6l37 2v-193q-27 -4 -63 -4q-43 0 -83 6.5t-94.5 26.5t-92 56t-65.5 102.5t-28 156.5z" />
<glyph unicode="|" horiz-adv-x="638" d="M209 -330v1960h221v-1960h-221z" />
<glyph unicode="}" horiz-adv-x="720" d="M72 -6q16 -2 37 -2q166 0 165 174v246q0 59 17.5 107t43 75t50.5 45t41 25l18 6v4q-6 2 -18 7t-41 25.5t-51.5 47t-41 75t-18.5 105.5v223q0 55 -17 92t-46 53.5t-52.5 22.5t-49.5 6l-37 -2v193q27 2 63 2q43 0 83 -6.5t94.5 -27t92 -56t65.5 -102t28 -154.5v-177 q0 -92 44 -146t87 -62l43 -9v-227q-6 0 -18.5 -2t-42 -14.5t-53 -33t-42 -63.5t-18.5 -100v-199q0 -90 -28 -156.5t-65.5 -102.5t-92 -56t-94.5 -26.5t-83 -6.5l-63 4v193z" />
<glyph unicode="~" d="M115 408q0 373 315 372q70 0 126 -28.5t88 -64.5t75 -64.5t88 -28.5q63 0 95 51t32 127h205q0 -373 -314 -373q-70 0 -126 29t-87.5 63.5t-74.5 63.5t-88 29q-63 0 -95 -50.5t-32 -125.5h-207z" />
<glyph unicode="&#xa1;" horiz-adv-x="679" d="M215 801v241h250v-241h-250zM205 -410l22 1033h228l20 -1033h-270z" />
<glyph unicode="&#xa2;" horiz-adv-x="1198" d="M537 -76v228q-190 33 -307 192.5t-117 382.5t116.5 384t307.5 194v223h182v-223q133 -25 232.5 -113t146.5 -219l-234 -90q-72 182 -229 182q-115 0 -187.5 -95.5t-72.5 -242.5q0 -154 70.5 -246t189.5 -92q160 0 229 182l234 -90q-49 -125 -145.5 -219t-233.5 -110v-228 h-182z" />
<glyph unicode="&#xa3;" horiz-adv-x="1200" d="M96 0v227h119v410h-90v178h90v248q0 180 132 298t335 118q98 0 189.5 -37t132.5 -74l43 -37l-150 -180q-96 88 -211 88q-90 0 -146.5 -52t-56.5 -132v-240h363v-178h-363v-410h344q45 0 45 45v88h242v-221q0 -74 -32.5 -106.5t-104.5 -32.5h-881z" />
<glyph unicode="&#xa5;" horiz-adv-x="1271" d="M174 397v156h328v82l-56 86h-274v156h172v4l-188 301q-18 29 -35 37t-51 8h-43v227h133q74 0 115.5 -20.5t80.5 -85.5l191 -320l88 -160h4q37 74 88 160l191 320q39 66 79.5 86t114.5 20h133v-227h-43q-35 0 -51 -8.5t-35 -36.5l-188 -301v-4h168v-156h-271l-55 -86v-82 h326v-156h-326v-397h-268v397h-328z" />
<glyph unicode="&#xa7;" horiz-adv-x="1030" d="M328 283l-150 704q-14 68 -14 117q0 166 111.5 270.5t308.5 104.5q96 0 181 -32t124 -63l37 -32l-117 -166q-94 80 -223 80q-94 0 -152.5 -47.5t-58.5 -145.5q0 -47 14 -102l141 -688h-202zM125 -2l111 176l31 -26q19 -15 81 -39.5t119 -24.5q92 0 151.5 52t59.5 155 q0 49 -19 117l-137 661h205l145 -704q14 -72 15 -117q0 -166 -111.5 -270.5t-308.5 -104.5q-96 0 -181 32t-122 62z" />
<glyph unicode="&#xa8;" horiz-adv-x="1042" d="M627 1591v238h182v-238h-182zM260 1591v238h180v-238h-180z" />
<glyph unicode="&#xa9;" horiz-adv-x="1599" d="M66 727q0 311 214 530.5t517 219.5q307 0 522 -219.5t215 -530.5t-215 -531.5t-522 -220.5q-303 0 -517 220.5t-214 531.5zM248 727q0 -246 158.5 -416t390.5 -170q236 0 396.5 170t160.5 416t-161 415t-396 169q-231 0 -390 -169t-159 -415zM424 723q0 166 108.5 282.5 t274.5 116.5q201 0 309 -172l23 -43l-156 -73l-6 12q-4 8 -19.5 28.5t-34 36t-48 28.5t-62.5 13q-90 0 -145.5 -65.5t-55.5 -163.5q0 -100 54.5 -164.5t146.5 -64.5q53 0 95 29.5t59 58.5l16 30l156 -71l-12 -24q-7 -15 -34.5 -52t-61.5 -65.5t-94 -52t-130 -23.5 q-166 0 -274.5 116.5t-108.5 282.5z" />
<glyph unicode="&#xaa;" horiz-adv-x="851" d="M324 784q-92 0 -158 56.5t-66 152.5q0 55 28 96t66.5 64t92 36t95.5 17t85 4h29q-2 63 -24.5 88t-76.5 25q-70 0 -69 -31v-30h-176v86q0 39 27.5 65.5t70.5 38.5t78.5 17.5t68.5 5.5q287 0 287 -269v-221q0 -25 23 -24h53v-164h-140q-92 0 -104 71l-2 19h-4 q-6 -12 -19.5 -28.5t-60.5 -45.5t-104 -29zM369 932q55 0 89 45t40 113h-21q-186 0 -186 -89q0 -69 78 -69zM102 545v139h660v-139h-660z" />
<glyph unicode="&#xab;" horiz-adv-x="1257" d="M553 578l336 421h248l-336 -421l336 -420h-248zM430 158l-336 420l336 421h248l-336 -421l336 -420h-248z" />
<glyph unicode="&#xac;" d="M135 694v201h1000v-602h-209v401h-791z" />
<glyph unicode="&#xad;" horiz-adv-x="882" d="M133 471v227h617v-227h-617z" />
<glyph unicode="&#xae;" horiz-adv-x="1599" d="M66 727q0 311 214 530.5t517 219.5q307 0 522 -219.5t215 -530.5t-215 -531.5t-522 -220.5q-303 0 -517 220.5t-214 531.5zM248 727q0 -246 158.5 -416t390.5 -170q236 0 396.5 170t160.5 416t-161 415t-396 169q-231 0 -390 -169t-159 -415zM541 356v623h-66v127h377 q111 0 178.5 -65.5t67.5 -172.5q0 -80 -42 -131t-91 -63v-4q27 -6 47 -41l65 -123q14 -25 45 -25h23v-125h-98q-43 0 -66 11.5t-41 44.5l-100 188q-18 33 -68 33h-57v-277h-174zM715 756h96q51 0 80 29.5t29 83t-29 82t-78 28.5h-98v-223z" />
<glyph unicode="&#xaf;" horiz-adv-x="956" d="M213 1604v172h537v-172h-537z" />
<glyph unicode="&#x2c9;" horiz-adv-x="956" d="M213 1604v172h537v-172h-537z" />
<glyph unicode="&#xb0;" horiz-adv-x="839" d="M420 836q-139 0 -236.5 93t-97.5 228q0 133 97.5 228.5t236.5 95.5q137 0 235.5 -95.5t98.5 -228.5q0 -135 -97.5 -228t-236.5 -93zM419.5 1022q57.5 0 97.5 39t40 96q0 55 -40 95t-97.5 40t-96 -40t-38.5 -95q0 -57 38.5 -96t96 -39z" />
<glyph unicode="&#xb1;" d="M86 483v203h442v485h211v-485h443v-203h-443v-483h-211v483h-442zM115 -174h1040v-201h-1040v201z" />
<glyph unicode="&#xb2;" horiz-adv-x="894" d="M209 547q-59 0 -81 26.5t-22 112.5q0 63 20.5 113.5t63.5 90.5t76 63.5t90 56.5q86 47 130 88t44 98q0 45 -29.5 70.5t-76.5 25.5q-43 0 -70.5 -18.5t-27.5 -42.5v-45h-181v102q0 88 92.5 135t188.5 47q129 0 216 -72.5t87 -197.5q0 -66 -22.5 -118t-71.5 -94t-81 -62.5 t-95 -55.5q-76 -39 -114 -70.5t-38 -70.5q0 -12 23 -12h245q12 0 13 12v68h180v-150q0 -100 -100 -100h-459z" />
<glyph unicode="&#xb3;" horiz-adv-x="894" d="M449 530q-176 0 -320 160l-18 23l135 121q10 -14 27.5 -34t69.5 -53.5t103 -33.5q55 0 93.5 32.5t38.5 83.5q0 49 -39 79t-101 30h-71l-27 109l147 198l41 43v4q-31 -4 -63 -4h-115q-18 0 -18 -18v-49h-180v133q0 55 21.5 77.5t76.5 22.5h504v-133l-189 -234 q94 -20 152.5 -94.5t58.5 -167.5q0 -131 -97 -213t-230 -82z" />
<glyph unicode="&#xb4;" horiz-adv-x="827" d="M252 1550l156 279h249l-215 -279h-190z" />
<glyph unicode="&#xb5;" horiz-adv-x="1306" d="M39 823v221h248q72 0 104.5 -32.5t32.5 -104.5v-481q0 -104 36 -158.5t126 -54.5q135 0 214 102.5t79 249.5v479h260v-780q0 -45 45 -45h82v-219h-240q-137 0 -137 117v28l2 48h-6l-12 -24q-7 -15 -37.5 -52t-67.5 -65.5t-101.5 -52.5t-140.5 -24q-47 0 -83.5 10.5 t-49.5 22.5l-14 10h-4q14 -100 14 -170v-258h-223v1188q0 45 -45 45h-82z" />
<glyph unicode="&#x3bc;" horiz-adv-x="1306" d="M39 823v221h248q72 0 104.5 -32.5t32.5 -104.5v-481q0 -104 36 -158.5t126 -54.5q135 0 214 102.5t79 249.5v479h260v-780q0 -45 45 -45h82v-219h-240q-137 0 -137 117v28l2 48h-6l-12 -24q-7 -15 -37.5 -52t-67.5 -65.5t-101.5 -52.5t-140.5 -24q-47 0 -83.5 10.5 t-49.5 22.5l-14 10h-4q14 -100 14 -170v-258h-223v1188q0 45 -45 45h-82z" />
<glyph unicode="&#xb6;" horiz-adv-x="1280" d="M561 -102v596q-199 0 -340 140t-141 341t141 340t340 139h625v-227h-436v-1329h-189zM877 -102v1216h190v-1216h-190z" />
<glyph unicode="&#xb7;" horiz-adv-x="542" d="M145 469v258h252v-258h-252z" />
<glyph unicode="&#x2219;" horiz-adv-x="542" d="M145 469v258h252v-258h-252z" />
<glyph unicode="&#xb8;" horiz-adv-x="860" d="M332 51l119 -26v-15l-21 -100q66 -8 108 -48t42 -108q0 -94 -64.5 -137t-157.5 -43q-31 0 -62.5 4t-47.5 8l-17 2v144q43 -16 91 -17q88 0 88 58q0 55 -99 55l-43 -4z" />
<glyph unicode="&#xb9;" horiz-adv-x="894" d="M147 547v170h189v420l2 63h-4q-8 -18 -23 -31l-69 -65l-115 125l235 225h170v-737h187v-170h-572z" />
<glyph unicode="&#xba;" horiz-adv-x="931" d="M465 786q-150 0 -254.5 98.5t-104.5 248.5q0 147 104.5 244.5t254.5 97.5q152 0 256 -97.5t104 -244.5q0 -150 -104 -248.5t-256 -98.5zM465 950q74 0 124 51.5t50 131.5q0 78 -50 129t-124 51q-72 0 -122 -51.5t-50 -128.5q0 -80 50 -131.5t122 -51.5zM137 545v139h660 v-139h-660z" />
<glyph unicode="&#xbb;" horiz-adv-x="1257" d="M580 158l335 420l-335 421h247l336 -421l-336 -420h-247zM119 158l336 420l-336 421h248l335 -421l-335 -420h-248z" />
<glyph unicode="&#xbc;" horiz-adv-x="1931" d="M614 0l568 1454h202l-567 -1454h-203zM158 547v170h188v420l2 63h-4q-8 -18 -22 -31l-70 -65l-115 125l234 225h170v-737h178v-170h-561zM1102 221v115l358 573h236v-516h133v-172h-133v-221h-197v221h-397zM1300 391q25 2 39 2h164v244l2 70h-4q-12 -31 -28 -58 l-144 -219l-29 -35v-4z" />
<glyph unicode="&#xbd;" horiz-adv-x="1931" d="M590 0l567 1454h201l-567 -1454h-201zM158 547v170h188v420l2 63h-4q-8 -18 -22 -31l-70 -65l-115 125l234 225h170v-737h178v-170h-561zM1161 141q0 61 20.5 112.5t62.5 91.5t77 63.5t92 56.5t88 53.5t58.5 56t27.5 76.5q0 43 -29.5 68.5t-78.5 25.5q-43 0 -70 -17 t-27 -42v-47h-180v102q0 88 92 136.5t189 48.5q127 0 215 -74t88 -199q0 -66 -22.5 -118t-72 -93t-81 -61.5t-97.5 -54.5q-74 -39 -111.5 -72t-37.5 -72q0 -12 22 -12h244q12 0 12 14v66h183v-150q0 -100 -103 -100h-456q-61 0 -83 27.5t-22 113.5z" />
<glyph unicode="&#xbe;" horiz-adv-x="1931" d="M608 0l568 1454h200l-565 -1454h-203zM455 530q-90 0 -174 46.5t-123 91.5l-39 45l133 121q10 -14 27.5 -34t69.5 -53.5t104 -33.5q55 0 93 32.5t38 83.5q0 49 -39 79t-101 30h-71l-27 109l148 198l41 43v4q-31 -4 -64 -4h-115q-18 0 -18 -18v-49h-180v133 q0 55 21.5 77.5t76.5 22.5h504v-133l-189 -234q94 -20 152.5 -94.5t58.5 -167.5q0 -131 -97 -213t-230 -82zM1102 221v115l358 573h236v-516h133v-172h-133v-221h-197v221h-397zM1300 391q25 2 39 2h164v244l2 70h-4q-12 -31 -28 -58l-144 -219l-29 -35v-4z" />
<glyph unicode="&#xbf;" horiz-adv-x="974" d="M426 803v241h250v-241h-250zM68 -45q0 92 36.5 168t89 125l105.5 94t90 98.5t37 112.5v72h250v-90q0 -82 -35 -151t-84 -115l-98 -88q-49 -42 -84 -93t-35 -108q0 -72 57.5 -122.5t141.5 -50.5q51 0 105 23t83 43l29 23l145 -181q-16 -16 -47 -40.5t-131 -64.5t-207 -40 q-182 0 -315 104.5t-133 280.5z" />
<glyph unicode="&#xc0;" horiz-adv-x="1380" d="M23 0v227h32q49 0 64 45l432 1182h280l431 -1182q14 -45 63 -45h33v-227h-160q-76 0 -111.5 24.5t-60.5 94.5l-90 254h-492l-90 -254q-25 -70 -59.5 -94.5t-110.5 -24.5h-161zM506 594h368l-124 364l-58 218h-4q-31 -137 -57 -218zM590 1550l-213 279h250l155 -279h-192z " />
<glyph unicode="&#xc1;" horiz-adv-x="1380" d="M23 0v227h32q49 0 64 45l432 1182h280l431 -1182q14 -45 63 -45h33v-227h-160q-76 0 -111.5 24.5t-60.5 94.5l-90 254h-492l-90 -254q-25 -70 -59.5 -94.5t-110.5 -24.5h-161zM506 594h368l-124 364l-58 218h-4q-31 -137 -57 -218zM590 1550l155 279h250l-215 -279h-190z " />
<glyph unicode="&#xc2;" horiz-adv-x="1380" d="M23 0v227h32q49 0 64 45l432 1182h280l431 -1182q14 -45 63 -45h33v-227h-160q-76 0 -111.5 24.5t-60.5 94.5l-90 254h-492l-90 -254q-25 -70 -59.5 -94.5t-110.5 -24.5h-161zM506 594h368l-124 364l-58 218h-4q-31 -137 -57 -218zM393 1550l187 279h223l188 -279h-194 l-103 166h-4l-104 -166h-193z" />
<glyph unicode="&#xc3;" horiz-adv-x="1380" d="M23 0v227h32q49 0 64 45l432 1182h280l431 -1182q14 -45 63 -45h33v-227h-160q-76 0 -111.5 24.5t-60.5 94.5l-90 254h-492l-90 -254q-25 -70 -59.5 -94.5t-110.5 -24.5h-161zM506 594h368l-124 364l-58 218h-4q-31 -137 -57 -218zM319 1552q0 281 234 281 q61 0 108.5 -34t83 -66.5t70.5 -32.5q41 0 62.5 37t21.5 90h162q0 -281 -234 -281q-61 0 -108 34t-83 66.5t-71 32.5q-41 0 -62.5 -35.5t-21.5 -91.5h-162z" />
<glyph unicode="&#xc4;" horiz-adv-x="1380" d="M23 0v227h32q49 0 64 45l432 1182h280l431 -1182q14 -45 63 -45h33v-227h-160q-76 0 -111.5 24.5t-60.5 94.5l-90 254h-492l-90 -254q-25 -70 -59.5 -94.5t-110.5 -24.5h-161zM506 594h368l-124 364l-58 218h-4q-31 -137 -57 -218zM784 1591v238h183v-238h-183zM418 1591 v238h180v-238h-180z" />
<glyph unicode="&#xc5;" horiz-adv-x="1380" d="M23 0v227h32q49 0 64 45l432 1182h280l431 -1182q14 -45 63 -45h33v-227h-160q-76 0 -111.5 24.5t-60.5 94.5l-90 254h-492l-90 -254q-25 -70 -59.5 -94.5t-110.5 -24.5h-161zM506 594h368l-124 364l-58 218h-4q-31 -137 -57 -218zM690 1526q-74 0 -128 43t-54 117 q0 76 54 118.5t128 42.5t128 -43t54 -118q0 -74 -54 -117t-128 -43zM690 1616q31 0 51.5 19.5t20.5 50.5q0 33 -20.5 52t-51.5 19t-51.5 -19.5t-20.5 -51.5q0 -31 20.5 -50.5t51.5 -19.5z" />
<glyph unicode="&#xc6;" horiz-adv-x="1824" d="M23 0v227h28q29 0 41 9.5t23 35.5l485 1182h989q74 0 107 -34t33 -105v-221h-244v88q0 45 -45 45h-320v-381h465v-228h-465v-346q0 -45 51 -45h324q45 0 45 45v88h242v-221q0 -74 -33 -106.5t-107 -32.5h-645q-80 0 -113.5 30.5t-33.5 108.5v479h-326l-186 -499 q-27 -70 -61.5 -94.5t-110.5 -24.5h-143zM610 846h240v381h-96z" />
<glyph unicode="&#xc7;" horiz-adv-x="1452" d="M61 739q0 315 211 527.5t527 212.5q78 0 166 -17.5t178 -52.5t148.5 -101.5t58.5 -154.5v-162h-244v82q0 74 -95.5 115t-205.5 41q-201 0 -333 -133t-132 -357q0 -215 135 -364.5t332 -149.5q78 0 152.5 19.5t125 47t90 56.5t58.5 49l20 19l142 -191q-8 -10 -23.5 -25.5 t-69 -57.5t-114 -73.5t-157.5 -59t-200 -32.5l-14 -67q66 -8 108 -48t42 -108q0 -94 -63.5 -137t-158.5 -43q-31 0 -62.5 4t-47.5 8l-14 2v144q43 -16 88 -17q90 0 90 58q0 55 -99 55l-43 -4l43 158q-289 33 -464 244.5t-175 512.5z" />
<glyph unicode="&#xc8;" horiz-adv-x="1183" d="M203 139v1088h-133v227h878q139 0 139 -139v-221h-243v88q0 45 -45 45h-328v-381h471v-228h-471v-346q0 -45 45 -45h336q45 0 45 45v88h244v-221q0 -74 -34 -106.5t-106 -32.5h-659q-74 0 -106.5 32.5t-32.5 106.5zM508 1550l-213 279h250l155 -279h-192z" />
<glyph unicode="&#xc9;" horiz-adv-x="1183" d="M203 139v1088h-133v227h878q139 0 139 -139v-221h-243v88q0 45 -45 45h-328v-381h471v-228h-471v-346q0 -45 45 -45h336q45 0 45 45v88h244v-221q0 -74 -34 -106.5t-106 -32.5h-659q-74 0 -106.5 32.5t-32.5 106.5zM508 1550l156 279h249l-215 -279h-190z" />
<glyph unicode="&#xca;" horiz-adv-x="1183" d="M203 139v1088h-133v227h878q139 0 139 -139v-221h-243v88q0 45 -45 45h-328v-381h471v-228h-471v-346q0 -45 45 -45h336q45 0 45 45v88h244v-221q0 -74 -34 -106.5t-106 -32.5h-659q-74 0 -106.5 32.5t-32.5 106.5zM309 1550l187 279h223l188 -279h-194l-103 166h-4 l-104 -166h-193z" />
<glyph unicode="&#xcb;" horiz-adv-x="1183" d="M203 139v1088h-133v227h878q139 0 139 -139v-221h-243v88q0 45 -45 45h-328v-381h471v-228h-471v-346q0 -45 45 -45h336q45 0 45 45v88h244v-221q0 -74 -34 -106.5t-106 -32.5h-659q-74 0 -106.5 32.5t-32.5 106.5zM702 1591v238h183v-238h-183zM336 1591v238h180v-238 h-180z" />
<glyph unicode="&#xcc;" horiz-adv-x="700" d="M78 0v227h145v1000h-145v227h545v-227h-146v-1000h146v-227h-545zM250 1550l-213 279h250l155 -279h-192z" />
<glyph unicode="&#xcd;" horiz-adv-x="700" d="M78 0v227h145v1000h-145v227h545v-227h-146v-1000h146v-227h-545zM250 1550l156 279h249l-215 -279h-190z" />
<glyph unicode="&#xce;" horiz-adv-x="700" d="M78 0v227h145v1000h-145v227h545v-227h-146v-1000h146v-227h-545zM51 1550l187 279h223l188 -279h-194l-103 166h-4l-104 -166h-193z" />
<glyph unicode="&#xcf;" horiz-adv-x="700" d="M78 0v227h145v1000h-145v227h545v-227h-146v-1000h146v-227h-545zM442 1591v238h183v-238h-183zM76 1591v238h180v-238h-180z" />
<glyph unicode="&#xd0;" horiz-adv-x="1464" d="M203 139v477h-99v215h99v396h-133v227h592q340 0 540.5 -192.5t200.5 -532.5t-201 -534.5t-540 -194.5h-320q-74 0 -106.5 32.5t-32.5 106.5zM471 272q0 -45 45 -45h131q221 0 349 130t128 372q0 238 -129 368t-348 130h-176v-396h252v-215h-252v-344z" />
<glyph unicode="&#xd1;" horiz-adv-x="1576" d="M70 0v227h88q45 0 45 45v1182h241l551 -805q57 -84 121 -205h4q-14 121 -14 205v666q0 72 32.5 105.5t106.5 33.5h262v-227h-88q-45 0 -45 -45v-1182h-239l-553 803q-57 82 -121 205h-4q14 -121 14 -205v-664q0 -74 -32.5 -106.5t-106.5 -32.5h-262zM434 1552 q0 281 234 281q61 0 108 -34t83 -66.5t71 -32.5q41 0 62.5 37t21.5 90h162q0 -281 -234 -281q-61 0 -108.5 34t-83 66.5t-70.5 32.5q-41 0 -62.5 -35.5t-21.5 -91.5h-162z" />
<glyph unicode="&#xd2;" horiz-adv-x="1626" d="M61 737q0 313 216.5 527.5t536 214.5t535.5 -214t216 -528q0 -322 -216 -542t-535.5 -220t-536 220t-216.5 542zM340 737q0 -217 137 -364.5t336 -147.5t336 147.5t137 364.5q0 207 -137 349.5t-336 142.5t-336 -142.5t-137 -349.5zM709 1550l-213 279h249l156 -279h-192 z" />
<glyph unicode="&#xd3;" horiz-adv-x="1626" d="M61 737q0 313 216.5 527.5t536 214.5t535.5 -214t216 -528q0 -322 -216 -542t-535.5 -220t-536 220t-216.5 542zM340 737q0 -217 137 -364.5t336 -147.5t336 147.5t137 364.5q0 207 -137 349.5t-336 142.5t-336 -142.5t-137 -349.5zM709 1550l155 279h250l-215 -279h-190 z" />
<glyph unicode="&#xd4;" horiz-adv-x="1626" d="M61 737q0 313 216.5 527.5t536 214.5t535.5 -214t216 -528q0 -322 -216 -542t-535.5 -220t-536 220t-216.5 542zM340 737q0 -217 137 -364.5t336 -147.5t336 147.5t137 364.5q0 207 -137 349.5t-336 142.5t-336 -142.5t-137 -349.5zM510 1550l186 279h224l188 -279h-195 l-102 166h-4l-105 -166h-192z" />
<glyph unicode="&#xd5;" horiz-adv-x="1626" d="M61 737q0 313 216.5 527.5t536 214.5t535.5 -214t216 -528q0 -322 -216 -542t-535.5 -220t-536 220t-216.5 542zM340 737q0 -217 137 -364.5t336 -147.5t336 147.5t137 364.5q0 207 -137 349.5t-336 142.5t-336 -142.5t-137 -349.5zM436 1552q0 281 234 281q59 0 107 -34 t84 -66.5t71 -32.5q41 0 62.5 37t21.5 90h162q0 -281 -234 -281q-59 0 -107.5 34t-84 66.5t-70.5 32.5q-41 0 -62.5 -35.5t-21.5 -91.5h-162z" />
<glyph unicode="&#xd6;" horiz-adv-x="1626" d="M61 737q0 313 216.5 527.5t536 214.5t535.5 -214t216 -528q0 -322 -216 -542t-535.5 -220t-536 220t-216.5 542zM340 737q0 -217 137 -364.5t336 -147.5t336 147.5t137 364.5q0 207 -137 349.5t-336 142.5t-336 -142.5t-137 -349.5zM901 1591v238h182v-238h-182z M535 1591v238h180v-238h-180z" />
<glyph unicode="&#xd7;" d="M94 141l404 445l-404 442l142 143l399 -438l399 438l142 -143l-406 -442l406 -445l-142 -141l-399 438l-399 -438z" />
<glyph unicode="&#xd8;" horiz-adv-x="1628" d="M223 27l92 131q-252 225 -252 579q0 313 216.5 527.5t535.5 214.5q207 0 381 -101l94 129l117 -80l-94 -129q119 -104 186.5 -249.5t67.5 -311.5q0 -322 -216 -542t-536 -220q-209 0 -381 101l-94 -129zM477 379l567 788q-106 61 -229 62q-199 0 -336 -142.5t-137 -349.5 q0 -213 135 -358zM586 287q102 -61 229 -62q197 0 334 147.5t137 364.5q0 199 -133 338z" />
<glyph unicode="&#xd9;" horiz-adv-x="1515" d="M186 518v664q0 45 -45 45h-88v227h262q74 0 107 -34t33 -105v-789q0 -141 81.5 -221t221 -80t221.5 80t82 223v787q0 72 32.5 105.5t106.5 33.5h262v-227h-88q-45 0 -45 -45v-664q0 -242 -156.5 -392.5t-412.5 -150.5q-258 0 -416 150.5t-158 392.5zM659 1550l-213 279 h250l156 -279h-193z" />
<glyph unicode="&#xda;" horiz-adv-x="1515" d="M186 518v664q0 45 -45 45h-88v227h262q74 0 107 -34t33 -105v-789q0 -141 81.5 -221t221 -80t221.5 80t82 223v787q0 72 32.5 105.5t106.5 33.5h262v-227h-88q-45 0 -45 -45v-664q0 -242 -156.5 -392.5t-412.5 -150.5q-258 0 -416 150.5t-158 392.5zM659 1550l156 279 h250l-215 -279h-191z" />
<glyph unicode="&#xdb;" horiz-adv-x="1515" d="M186 518v664q0 45 -45 45h-88v227h262q74 0 107 -34t33 -105v-789q0 -141 81.5 -221t221 -80t221.5 80t82 223v787q0 72 32.5 105.5t106.5 33.5h262v-227h-88q-45 0 -45 -45v-664q0 -242 -156.5 -392.5t-412.5 -150.5q-258 0 -416 150.5t-158 392.5zM461 1550l186 279 h223l189 -279h-195l-102 166h-4l-105 -166h-192z" />
<glyph unicode="&#xdc;" horiz-adv-x="1515" d="M186 518v664q0 45 -45 45h-88v227h262q74 0 107 -34t33 -105v-789q0 -141 81.5 -221t221 -80t221.5 80t82 223v787q0 72 32.5 105.5t106.5 33.5h262v-227h-88q-45 0 -45 -45v-664q0 -242 -156.5 -392.5t-412.5 -150.5q-258 0 -416 150.5t-158 392.5zM852 1591v238h182 v-238h-182zM485 1591v238h181v-238h-181z" />
<glyph unicode="&#xdd;" horiz-adv-x="1259" d="M496 0v635l-344 543q-20 31 -36 40t-48 9h-48v227h138q74 0 112.5 -20.5t77.5 -85.5l193 -320l88 -164h4q37 78 88 164l190 320q39 66 78 86t113 20h137v-227h-47q-33 0 -48.5 -9.5t-35.5 -39.5l-344 -543v-635h-268zM530 1550l156 279h250l-215 -279h-191z" />
<glyph unicode="&#xde;" horiz-adv-x="1249" d="M203 0v1182q0 45 -45 45h-88v227h262q74 0 106.5 -34t32.5 -105v-96h264q205 0 334 -131.5t129 -342t-129 -344t-336 -133.5h-262v-268h-268zM471 496h215q113 0 175.5 67.5t62.5 182t-61.5 180t-172.5 65.5h-219v-495z" />
<glyph unicode="&#xdf;" horiz-adv-x="1224" d="M37 0v219h72q45 0 45 45v819q0 184 140 290t333 106q178 0 301 -102.5t123 -254.5q0 -61 -29 -115.5t-63.5 -86t-63.5 -72.5t-29 -80q0 -33 34 -68.5t83 -70.5t98 -78t83 -106.5t34 -139.5q0 -158 -106.5 -244t-262.5 -86q-190 2 -303 86l60 201q94 -66 205 -65 q145 0 145 122q0 47 -52.5 97.5t-113.5 91.5t-113.5 108.5t-52.5 145.5q0 68 46 129l92 118q46 56 46 109q0 57 -45 98t-125 41q-86 0 -145 -49t-59 -143v-926q0 -74 -33 -106.5t-107 -32.5h-237z" />
<glyph unicode="&#xe0;" horiz-adv-x="1146" d="M68 301q0 78 32.5 139.5t91 98t122 62.5t140 36t129 14t105.5 4h33v9q0 111 -46 157.5t-147 46.5q-49 0 -94 -15t-45 -54v-56h-242v111q0 68 42 115t111 66.5t123 26.5t107 7q451 0 451 -416v-389q0 -45 45 -45h82v-219h-234q-68 0 -100.5 31.5t-32.5 83.5l2 45h-4 l-10 -21q-6 -12 -32.5 -44t-59.5 -56.5t-90.5 -44t-122.5 -19.5q-147 0 -251.5 88t-104.5 238zM330 313q0 -55 41 -95t116 -40q100 0 169 87t69 188v24h-45q-350 0 -350 -164zM455 1174l-213 278h250l155 -278h-192z" />
<glyph unicode="&#xe1;" horiz-adv-x="1146" d="M68 301q0 78 32.5 139.5t91 98t122 62.5t140 36t129 14t105.5 4h33v9q0 111 -46 157.5t-147 46.5q-49 0 -94 -15t-45 -54v-56h-242v111q0 68 42 115t111 66.5t123 26.5t107 7q451 0 451 -416v-389q0 -45 45 -45h82v-219h-234q-68 0 -100.5 31.5t-32.5 83.5l2 45h-4 l-10 -21q-6 -12 -32.5 -44t-59.5 -56.5t-90.5 -44t-122.5 -19.5q-147 0 -251.5 88t-104.5 238zM330 313q0 -55 41 -95t116 -40q100 0 169 87t69 188v24h-45q-350 0 -350 -164zM455 1174l155 278h250l-215 -278h-190z" />
<glyph unicode="&#xe2;" horiz-adv-x="1146" d="M68 301q0 78 32.5 139.5t91 98t122 62.5t140 36t129 14t105.5 4h33v9q0 111 -46 157.5t-147 46.5q-49 0 -94 -15t-45 -54v-56h-242v111q0 68 42 115t111 66.5t123 26.5t107 7q451 0 451 -416v-389q0 -45 45 -45h82v-219h-234q-68 0 -100.5 31.5t-32.5 83.5l2 45h-4 l-10 -21q-6 -12 -32.5 -44t-59.5 -56.5t-90.5 -44t-122.5 -19.5q-147 0 -251.5 88t-104.5 238zM330 313q0 -55 41 -95t116 -40q100 0 169 87t69 188v24h-45q-350 0 -350 -164zM258 1174l186 278h224l188 -278h-194l-103 165h-4l-104 -165h-193z" />
<glyph unicode="&#xe3;" horiz-adv-x="1146" d="M68 301q0 78 32.5 139.5t91 98t122 62.5t140 36t129 14t105.5 4h33v9q0 111 -46 157.5t-147 46.5q-49 0 -94 -15t-45 -54v-56h-242v111q0 68 42 115t111 66.5t123 26.5t107 7q451 0 451 -416v-389q0 -45 45 -45h82v-219h-234q-68 0 -100.5 31.5t-32.5 83.5l2 45h-4 l-10 -21q-6 -12 -32.5 -44t-59.5 -56.5t-90.5 -44t-122.5 -19.5q-147 0 -251.5 88t-104.5 238zM330 313q0 -55 41 -95t116 -40q100 0 169 87t69 188v24h-45q-350 0 -350 -164zM184 1176q0 281 234 280q61 0 108 -33.5t83 -66.5t71 -33q41 0 62.5 37t21.5 90h162 q0 -281 -234 -281q-61 0 -108 34t-83 67t-71 33q-41 0 -62.5 -36t-21.5 -91h-162z" />
<glyph unicode="&#xe4;" horiz-adv-x="1146" d="M68 301q0 78 32.5 139.5t91 98t122 62.5t140 36t129 14t105.5 4h33v9q0 111 -46 157.5t-147 46.5q-49 0 -94 -15t-45 -54v-56h-242v111q0 68 42 115t111 66.5t123 26.5t107 7q451 0 451 -416v-389q0 -45 45 -45h82v-219h-234q-68 0 -100.5 31.5t-32.5 83.5l2 45h-4 l-10 -21q-6 -12 -32.5 -44t-59.5 -56.5t-90.5 -44t-122.5 -19.5q-147 0 -251.5 88t-104.5 238zM330 313q0 -55 41 -95t116 -40q100 0 169 87t69 188v24h-45q-350 0 -350 -164zM649 1214v238h182v-238h-182zM283 1214v238h180v-238h-180z" />
<glyph unicode="&#xe5;" horiz-adv-x="1146" d="M68 301q0 78 32.5 139.5t91 98t122 62.5t140 36t129 14t105.5 4h33v9q0 111 -46 157.5t-147 46.5q-49 0 -94 -15t-45 -54v-56h-242v111q0 68 42 115t111 66.5t123 26.5t107 7q451 0 451 -416v-389q0 -45 45 -45h82v-219h-234q-68 0 -100.5 31.5t-32.5 83.5l2 45h-4 l-10 -21q-6 -12 -32.5 -44t-59.5 -56.5t-90.5 -44t-122.5 -19.5q-147 0 -251.5 88t-104.5 238zM330 313q0 -55 41 -95t116 -40q100 0 169 87t69 188v24h-45q-350 0 -350 -164zM555 1149q-74 0 -128 43t-54 117q0 76 54 118.5t128 42.5t128 -43t54 -118q0 -74 -54 -117 t-128 -43zM555 1239q31 0 51.5 19.5t20.5 50.5q0 33 -20.5 52t-51.5 19t-51.5 -19.5t-20.5 -51.5q0 -31 20.5 -50.5t51.5 -19.5z" />
<glyph unicode="&#xe6;" horiz-adv-x="1773" d="M70 301q0 113 65.5 189.5t174 108.5t195.5 43t183 11h35v15q0 109 -48 154.5t-147 45.5q-51 0 -95 -15t-44 -54v-56h-242v111q0 80 64.5 131t144.5 67.5t174 16.5q252 0 349 -154h4q125 154 348 154q219 0 339 -145.5t120 -366.5l-4 -84h-715q16 -135 100 -205.5 t207 -70.5q74 0 147.5 28.5t110.5 57.5l35 30l108 -180l-18 -17.5t-54 -38t-87 -47t-116 -38t-144 -17.5q-299 0 -439 230h-4q-10 -25 -34.5 -57.5t-69.5 -73.5t-121 -69t-166 -28q-150 0 -253 88.5t-103 235.5zM981 653h444q-2 94 -59 153.5t-139 59.5q-96 0 -161 -57.5 t-85 -155.5zM332 313q0 -57 41 -96t119 -39q100 0 167.5 87t67.5 190v18h-74q-321 0 -321 -160z" />
<glyph unicode="&#xe7;" horiz-adv-x="1101" d="M66 522q0 229 155.5 388t415.5 159q80 0 160 -19.5t149.5 -75.5t69.5 -140v-123h-230v57q0 39 -47 60.5t-102 21.5q-135 0 -222 -92t-87 -234q0 -152 95 -236.5t230 -84.5q160 0 299 131l11 10l108 -180q-6 -8 -18.5 -20.5t-53.5 -44t-87 -56.5t-120.5 -45.5 t-152.5 -22.5l-14 -65q66 -8 106.5 -47t40.5 -109q0 -94 -63.5 -137t-155.5 -43q-33 0 -64.5 4t-46.5 8l-16 2v144q43 -16 90 -17q88 0 88 58q0 55 -98 55l-43 -4l45 164q-203 37 -322.5 184t-119.5 350z" />
<glyph unicode="&#xe8;" horiz-adv-x="1140" d="M66 522q0 242 147 394.5t383 152.5q217 0 340 -140.5t123 -355.5l-6 -96h-721q14 -133 102 -206.5t211 -73.5q74 0 147.5 28.5t108.5 57.5l37 30l109 -180q-6 -6 -18.5 -17.5t-54.5 -38t-87 -47t-116 -38t-144 -17.5q-252 0 -406.5 159t-154.5 388zM340 657h453 q-2 92 -58.5 151.5t-138.5 59.5q-100 0 -166.5 -56.5t-89.5 -154.5zM489 1174l-213 278h250l156 -278h-193z" />
<glyph unicode="&#xe9;" horiz-adv-x="1140" d="M66 522q0 242 147 394.5t383 152.5q217 0 340 -140.5t123 -355.5l-6 -96h-721q14 -133 102 -206.5t211 -73.5q74 0 147.5 28.5t108.5 57.5l37 30l109 -180q-6 -6 -18.5 -17.5t-54.5 -38t-87 -47t-116 -38t-144 -17.5q-252 0 -406.5 159t-154.5 388zM340 657h453 q-2 92 -58.5 151.5t-138.5 59.5q-100 0 -166.5 -56.5t-89.5 -154.5zM489 1174l156 278h250l-215 -278h-191z" />
<glyph unicode="&#xea;" horiz-adv-x="1140" d="M66 522q0 242 147 394.5t383 152.5q217 0 340 -140.5t123 -355.5l-6 -96h-721q14 -133 102 -206.5t211 -73.5q74 0 147.5 28.5t108.5 57.5l37 30l109 -180q-6 -6 -18.5 -17.5t-54.5 -38t-87 -47t-116 -38t-144 -17.5q-252 0 -406.5 159t-154.5 388zM340 657h453 q-2 92 -58.5 151.5t-138.5 59.5q-100 0 -166.5 -56.5t-89.5 -154.5zM291 1174l186 278h223l189 -278h-195l-102 165h-4l-105 -165h-192z" />
<glyph unicode="&#xeb;" horiz-adv-x="1140" d="M66 522q0 242 147 394.5t383 152.5q217 0 340 -140.5t123 -355.5l-6 -96h-721q14 -133 102 -206.5t211 -73.5q74 0 147.5 28.5t108.5 57.5l37 30l109 -180q-6 -6 -18.5 -17.5t-54.5 -38t-87 -47t-116 -38t-144 -17.5q-252 0 -406.5 159t-154.5 388zM340 657h453 q-2 92 -58.5 151.5t-138.5 59.5q-100 0 -166.5 -56.5t-89.5 -154.5zM682 1214v238h182v-238h-182zM315 1214v238h181v-238h-181z" />
<glyph unicode="&#xec;" horiz-adv-x="618" d="M180 139v639q0 45 -45 45h-82v221h248q139 0 139 -139v-641q0 -45 45 -45h80v-219h-246q-74 0 -106.5 32.5t-32.5 106.5zM195 1174l-213 280h247l156 -280h-190z" />
<glyph unicode="&#xed;" horiz-adv-x="618" d="M180 139v639q0 45 -45 45h-82v221h248q139 0 139 -139v-641q0 -45 45 -45h80v-219h-246q-74 0 -106.5 32.5t-32.5 106.5zM195 1174l155 280h248l-213 -280h-190z" />
<glyph unicode="&#xee;" horiz-adv-x="618" d="M180 139v639q0 45 -45 45h-82v221h248q139 0 139 -139v-641q0 -45 45 -45h80v-219h-246q-74 0 -106.5 32.5t-32.5 106.5zM-6 1174l188 280h224l188 -280h-197l-102 167h-4l-103 -167h-194z" />
<glyph unicode="&#xef;" horiz-adv-x="618" d="M180 139v639q0 45 -45 45h-82v221h248q139 0 139 -139v-641q0 -45 45 -45h80v-219h-246q-74 0 -106.5 32.5t-32.5 106.5zM356 1214v240h183v-240h-183zM41 1214v240h180v-240h-180z" />
<glyph unicode="&#xf0;" horiz-adv-x="1198" d="M78 485q0 193 130 330t351 137q57 0 109.5 -15t76.5 -30l23 -14h4q-59 131 -192 217l-379 -164l-13 154l228 100q-100 49 -236 82l72 205q258 -57 442 -170l303 129l13 -152l-181 -80q281 -246 281 -645q0 -86 -17.5 -169t-58.5 -160.5t-101.5 -136t-151.5 -93.5 t-203 -35q-229 0 -364.5 151.5t-135.5 358.5zM340 479q0 -117 63.5 -200.5t180.5 -83.5q131 0 197.5 98t66.5 229q0 100 -65.5 164t-176.5 64q-127 0 -196.5 -80t-69.5 -191z" />
<glyph unicode="&#xf1;" horiz-adv-x="1316" d="M170 0v778q0 45 -45 45h-82v221h240q137 0 137 -116v-31l-4 -45h4q43 86 135 151.5t233 65.5q365 0 365 -397v-408q0 -45 45 -45h82v-219h-248q-74 0 -106.5 33t-32.5 106v479q0 104 -36 158.5t-128 54.5q-102 0 -177 -58t-103 -155q-20 -61 -21 -139v-479h-258z M301 1176q0 281 234 280q59 0 107 -33.5t84 -66.5t71 -33q41 0 62.5 37t21.5 90h161q0 -281 -233 -281q-59 0 -107.5 34t-84 67t-70.5 33q-41 0 -62.5 -36t-21.5 -91h-162z" />
<glyph unicode="&#xf2;" horiz-adv-x="1275" d="M66 522.5q0 237.5 164.5 392t406.5 154.5t407.5 -154.5t165.5 -392t-164.5 -392.5t-408.5 -155q-242 0 -406.5 155t-164.5 392.5zM328 522q0 -143 90 -234t219 -91q131 0 221 91t90 234q0 141 -91 233.5t-220 92.5t-219 -92.5t-90 -233.5zM537 1174l-213 278h249 l156 -278h-192z" />
<glyph unicode="&#xf3;" horiz-adv-x="1275" d="M66 522.5q0 237.5 164.5 392t406.5 154.5t407.5 -154.5t165.5 -392t-164.5 -392.5t-408.5 -155q-242 0 -406.5 155t-164.5 392.5zM328 522q0 -143 90 -234t219 -91q131 0 221 91t90 234q0 141 -91 233.5t-220 92.5t-219 -92.5t-90 -233.5zM539 1174l155 278h250 l-215 -278h-190z" />
<glyph unicode="&#xf4;" horiz-adv-x="1275" d="M66 522.5q0 237.5 164.5 392t406.5 154.5t407.5 -154.5t165.5 -392t-164.5 -392.5t-408.5 -155q-242 0 -406.5 155t-164.5 392.5zM328 522q0 -143 90 -234t219 -91q131 0 221 91t90 234q0 141 -91 233.5t-220 92.5t-219 -92.5t-90 -233.5zM340 1174l186 278h224l188 -278 h-195l-102 165h-4l-105 -165h-192z" />
<glyph unicode="&#xf5;" horiz-adv-x="1275" d="M66 522.5q0 237.5 164.5 392t406.5 154.5t407.5 -154.5t165.5 -392t-164.5 -392.5t-408.5 -155q-242 0 -406.5 155t-164.5 392.5zM328 522q0 -143 90 -234t219 -91q131 0 221 91t90 234q0 141 -91 233.5t-220 92.5t-219 -92.5t-90 -233.5zM266 1176q0 281 234 280 q61 0 108 -33.5t83 -66.5t71 -33q41 0 62.5 37t21.5 90h162q0 -281 -234 -281q-61 0 -108.5 34t-83 67t-70.5 33q-41 0 -62.5 -36t-21.5 -91h-162z" />
<glyph unicode="&#xf6;" horiz-adv-x="1275" d="M66 522.5q0 237.5 164.5 392t406.5 154.5t407.5 -154.5t165.5 -392t-164.5 -392.5t-408.5 -155q-242 0 -406.5 155t-164.5 392.5zM328 522q0 -143 90 -234t219 -91q131 0 221 91t90 234q0 141 -91 233.5t-220 92.5t-219 -92.5t-90 -233.5zM731 1214v238h182v-238h-182z M365 1214v238h180v-238h-180z" />
<glyph unicode="&#xf7;" d="M510 895v221h233v-221h-233zM94 483v203h1067v-203h-1067zM510 55v221h233v-221h-233z" />
<glyph unicode="&#xf8;" horiz-adv-x="1275" d="M184 -8l78 108q-197 160 -196 422q0 238 164.5 392.5t406.5 154.5q147 0 274 -65l84 116l113 -78l-82 -112q184 -162 184 -408q0 -238 -164.5 -392.5t-408.5 -154.5q-141 0 -256 56l-84 -119zM408 301l366 514q-66 33 -137 33q-129 0 -219 -92t-90 -234q0 -129 80 -221z M518 221q55 -25 119 -24q131 0 221 91t90 234q0 119 -69 201z" />
<glyph unicode="&#xf9;" horiz-adv-x="1306" d="M166 373v405q0 45 -45 45h-82v221h248q72 0 104.5 -32.5t32.5 -104.5v-481q0 -104 36 -158.5t126 -54.5q135 0 214 102.5t79 249.5v479h260v-780q0 -45 45 -45h82v-219h-240q-137 0 -137 117v28l2 48h-4q-41 -90 -137.5 -154t-223.5 -64q-360 1 -360 398zM541 1174 l-213 278h250l155 -278h-192z" />
<glyph unicode="&#xfa;" horiz-adv-x="1306" d="M166 373v405q0 45 -45 45h-82v221h248q72 0 104.5 -32.5t32.5 -104.5v-481q0 -104 36 -158.5t126 -54.5q135 0 214 102.5t79 249.5v479h260v-780q0 -45 45 -45h82v-219h-240q-137 0 -137 117v28l2 48h-4q-41 -90 -137.5 -154t-223.5 -64q-360 1 -360 398zM541 1174 l155 278h250l-215 -278h-190z" />
<glyph unicode="&#xfb;" horiz-adv-x="1306" d="M166 373v405q0 45 -45 45h-82v221h248q72 0 104.5 -32.5t32.5 -104.5v-481q0 -104 36 -158.5t126 -54.5q135 0 214 102.5t79 249.5v479h260v-780q0 -45 45 -45h82v-219h-240q-137 0 -137 117v28l2 48h-4q-41 -90 -137.5 -154t-223.5 -64q-360 1 -360 398zM342 1174 l186 278h224l188 -278h-195l-102 165h-4l-104 -165h-193z" />
<glyph unicode="&#xfc;" horiz-adv-x="1306" d="M166 373v405q0 45 -45 45h-82v221h248q72 0 104.5 -32.5t32.5 -104.5v-481q0 -104 36 -158.5t126 -54.5q135 0 214 102.5t79 249.5v479h260v-780q0 -45 45 -45h82v-219h-240q-137 0 -137 117v28l2 48h-4q-41 -90 -137.5 -154t-223.5 -64q-360 1 -360 398zM735 1214v238 h183v-238h-183zM369 1214v238h180v-238h-180z" />
<glyph unicode="&#xfd;" horiz-adv-x="1132" d="M102 -139q63 -72 150 -72q117 0 172 133l35 80l-348 784q-14 37 -56 37h-30v221h172q55 0 85.5 -22.5t51.5 -75.5l205 -522l36 -139h5q16 86 34 139l179 522q33 98 139 98h176v-221h-31q-45 0 -59 -37l-375 -944q-53 -135 -153.5 -203.5t-223.5 -68.5q-152 0 -258 100 l-6 6zM471 1174l156 278h250l-215 -278h-191z" />
<glyph unicode="&#xfe;" horiz-adv-x="1265" d="M164 -410v1598q0 45 -45 45h-82v221h248q74 0 106.5 -34t32.5 -105v-297l-4 -90h4q98 141 305 141q213 0 342 -153.5t129 -393.5q0 -238 -129 -392.5t-342 -154.5q-100 0 -176 35t-102 70l-27 35h-4q4 -37 4 -90v-435h-260zM416 522q0 -170 74.5 -247.5t191.5 -77.5 q115 0 185.5 92t70.5 233q0 143 -70.5 234.5t-185.5 91.5q-119 0 -192.5 -78t-73.5 -248z" />
<glyph unicode="&#xff;" horiz-adv-x="1132" d="M102 -139q63 -72 150 -72q117 0 172 133l35 80l-348 784q-14 37 -56 37h-30v221h172q55 0 85.5 -22.5t51.5 -75.5l205 -522l36 -139h5q16 86 34 139l179 522q33 98 139 98h176v-221h-31q-45 0 -59 -37l-375 -944q-53 -135 -153.5 -203.5t-223.5 -68.5q-152 0 -258 100 l-6 6zM664 1214v238h182v-238h-182zM297 1214v238h180v-238h-180z" />
<glyph unicode="&#x100;" horiz-adv-x="1380" d="M23 0v227h32q49 0 64 45l432 1182h280l431 -1182q14 -45 63 -45h33v-227h-160q-76 0 -111.5 24.5t-60.5 94.5l-90 254h-492l-90 -254q-25 -70 -59.5 -94.5t-110.5 -24.5h-161zM506 594h368l-124 364l-58 218h-4q-31 -137 -57 -218zM424 1604v172h537v-172h-537z" />
<glyph unicode="&#x101;" horiz-adv-x="1146" d="M68 301q0 78 32.5 139.5t91 98t122 62.5t140 36t129 14t105.5 4h33v9q0 111 -46 157.5t-147 46.5q-49 0 -94 -15t-45 -54v-56h-242v111q0 68 42 115t111 66.5t123 26.5t107 7q451 0 451 -416v-389q0 -45 45 -45h82v-219h-234q-68 0 -100.5 31.5t-32.5 83.5l2 45h-4 l-10 -21q-6 -12 -32.5 -44t-59.5 -56.5t-90.5 -44t-122.5 -19.5q-147 0 -251.5 88t-104.5 238zM330 313q0 -55 41 -95t116 -40q100 0 169 87t69 188v24h-45q-350 0 -350 -164zM289 1227v172h536v-172h-536z" />
<glyph unicode="&#x102;" horiz-adv-x="1380" d="M23 0v227h32q49 0 64 45l432 1182h280l431 -1182q14 -45 63 -45h33v-227h-160q-76 0 -111.5 24.5t-60.5 94.5l-90 254h-492l-90 -254q-25 -70 -59.5 -94.5t-110.5 -24.5h-161zM506 594h368l-124 364l-58 218h-4q-31 -137 -57 -218zM690 1542q-117 0 -205 70.5t-88 191.5 v25h166v-25q0 -59 38 -90t89 -31t89 32t38 91v23h166v-25q0 -121 -88 -191.5t-205 -70.5z" />
<glyph unicode="&#x103;" horiz-adv-x="1146" d="M68 301q0 78 32.5 139.5t91 98t122 62.5t140 36t129 14t105.5 4h33v9q0 111 -46 157.5t-147 46.5q-49 0 -94 -15t-45 -54v-56h-242v111q0 68 42 115t111 66.5t123 26.5t107 7q451 0 451 -416v-389q0 -45 45 -45h82v-219h-234q-68 0 -100.5 31.5t-32.5 83.5l2 45h-4 l-10 -21q-6 -12 -32.5 -44t-59.5 -56.5t-90.5 -44t-122.5 -19.5q-147 0 -251.5 88t-104.5 238zM330 313q0 -55 41 -95t116 -40q100 0 169 87t69 188v24h-45q-350 0 -350 -164zM555 1165q-117 0 -205 71t-88 191v25h166v-25q0 -59 38 -89.5t89 -30.5t89 31.5t38 91.5v22h166 v-25q0 -121 -88 -191.5t-205 -70.5z" />
<glyph unicode="&#x104;" horiz-adv-x="1380" d="M23 0v227h32q49 0 64 45l432 1182h280l431 -1182q14 -45 63 -45h33v-227q-113 -94 -113 -160q6 -61 98 -73l-61 -193q-10 0 -27.5 3t-60.5 16.5t-76 33t-60.5 57t-27.5 87.5q0 125 137 229v4q-61 4 -89.5 28.5t-51.5 86.5l-90 254h-492l-90 -254q-25 -70 -59.5 -94.5 t-110.5 -24.5h-161zM506 594h368l-124 364l-58 218h-4q-31 -137 -57 -218z" />
<glyph unicode="&#x105;" horiz-adv-x="1146" d="M68 301q0 68 25.5 123t66.5 91t99 63.5t113.5 42t121 22.5t109.5 10t89 2h29v9q0 111 -46 157.5t-147 46.5q-49 0 -94 -15t-45 -54v-56h-242v111q0 68 42 114t111 66.5t123 27.5t107 7q451 0 451 -416v-389q0 -45 45 -45h82v-219q-115 -96 -115 -160q0 -29 25.5 -47 t50.5 -22l25 -4l-62 -193q-10 0 -27.5 3t-60.5 16.5t-75.5 33t-60.5 57t-28 87.5q0 119 135 225v4h-51q-63 0 -94 34t-31 75v10l4 41h-4l-10 -21q-6 -12 -32.5 -44t-59.5 -56.5t-91.5 -44t-125.5 -19.5q-147 0 -249.5 89.5t-102.5 236.5zM330 313q0 -55 41 -95t116 -40 q100 0 169 87t69 188v24h-45q-350 0 -350 -164z" />
<glyph unicode="&#x106;" horiz-adv-x="1452" d="M61 739q0 315 211 527.5t527 212.5q78 0 166 -17.5t178 -52.5t148.5 -101.5t58.5 -154.5v-162h-244v82q0 74 -95.5 115t-205.5 41q-201 0 -333 -133t-132 -357q0 -213 137 -363.5t336 -150.5q78 0 150.5 19.5t123 48.5t90.5 57.5t58 46.5l18 21l142 -193 q-8 -10 -24.5 -26.5t-74 -59.5t-120 -76.5t-163 -60.5t-204.5 -27q-330 0 -539 218t-209 546zM690 1550l156 279h250l-215 -279h-191z" />
<glyph unicode="&#x107;" horiz-adv-x="1101" d="M66 522q0 229 155.5 388t415.5 159q80 0 160 -19.5t149.5 -75.5t69.5 -140v-123h-230v57q0 39 -47 60.5t-102 21.5q-135 0 -222 -92t-87 -234q0 -152 95 -236.5t230 -84.5q160 0 299 131l11 10l108 -180q-6 -8 -18.5 -20.5t-54.5 -45t-89 -57.5t-122.5 -45.5 t-155.5 -20.5q-252 0 -408.5 157t-156.5 390zM498 1174l155 278h250l-215 -278h-190z" />
<glyph unicode="&#x108;" horiz-adv-x="1452" d="M61 739q0 315 211 527.5t527 212.5q78 0 166 -17.5t178 -52.5t148.5 -101.5t58.5 -154.5v-162h-244v82q0 74 -95.5 115t-205.5 41q-201 0 -333 -133t-132 -357q0 -213 137 -363.5t336 -150.5q78 0 150.5 19.5t123 48.5t90.5 57.5t58 46.5l18 21l142 -193 q-8 -10 -24.5 -26.5t-74 -59.5t-120 -76.5t-163 -60.5t-204.5 -27q-330 0 -539 218t-209 546zM494 1550l186 279h223l189 -279h-195l-102 166h-4l-105 -166h-192z" />
<glyph unicode="&#x109;" horiz-adv-x="1101" d="M66 522q0 229 155.5 388t415.5 159q80 0 160 -19.5t149.5 -75.5t69.5 -140v-123h-230v57q0 39 -47 60.5t-102 21.5q-135 0 -222 -92t-87 -234q0 -152 95 -236.5t230 -84.5q160 0 299 131l11 10l108 -180q-6 -8 -18.5 -20.5t-54.5 -45t-89 -57.5t-122.5 -45.5 t-155.5 -20.5q-252 0 -408.5 157t-156.5 390zM299 1174l186 278h224l188 -278h-195l-102 165h-4l-104 -165h-193z" />
<glyph unicode="&#x10a;" horiz-adv-x="1452" d="M61 739q0 315 211 527.5t527 212.5q78 0 166 -17.5t178 -52.5t148.5 -101.5t58.5 -154.5v-162h-244v82q0 74 -95.5 115t-205.5 41q-201 0 -333 -133t-132 -357q0 -213 137 -363.5t336 -150.5q78 0 150.5 19.5t123 48.5t90.5 57.5t58 46.5l18 21l142 -193 q-8 -10 -24.5 -26.5t-74 -59.5t-120 -76.5t-163 -60.5t-204.5 -27q-330 0 -539 218t-209 546zM680 1591v238h225v-238h-225z" />
<glyph unicode="&#x10b;" horiz-adv-x="1101" d="M66 522q0 229 155.5 388t415.5 159q80 0 160 -19.5t149.5 -75.5t69.5 -140v-123h-230v57q0 39 -47 60.5t-102 21.5q-135 0 -222 -92t-87 -234q0 -152 95 -236.5t230 -84.5q160 0 299 131l11 10l108 -180q-6 -8 -18.5 -20.5t-54.5 -45t-89 -57.5t-122.5 -45.5 t-155.5 -20.5q-252 0 -408.5 157t-156.5 390zM485 1214v238h226v-238h-226z" />
<glyph unicode="&#x10c;" horiz-adv-x="1452" d="M61 739q0 315 211 527.5t527 212.5q78 0 166 -17.5t178 -52.5t148.5 -101.5t58.5 -154.5v-162h-244v82q0 74 -95.5 115t-205.5 41q-201 0 -333 -133t-132 -357q0 -213 137 -363.5t336 -150.5q78 0 150.5 19.5t123 48.5t90.5 57.5t58 46.5l18 21l142 -193 q-8 -10 -24.5 -26.5t-74 -59.5t-120 -76.5t-163 -60.5t-204.5 -27q-330 0 -539 218t-209 546zM680 1550l-188 279h194l102 -166h5l102 166h197l-191 -279h-221z" />
<glyph unicode="&#x10d;" horiz-adv-x="1101" d="M66 522q0 229 155.5 388t415.5 159q80 0 160 -19.5t149.5 -75.5t69.5 -140v-123h-230v57q0 39 -47 60.5t-102 21.5q-135 0 -222 -92t-87 -234q0 -152 95 -236.5t230 -84.5q160 0 299 131l11 10l108 -180q-6 -8 -18.5 -20.5t-54.5 -45t-89 -57.5t-122.5 -45.5 t-155.5 -20.5q-252 0 -408.5 157t-156.5 390zM487 1174l-188 278h195l102 -166h4l102 166h197l-190 -278h-222z" />
<glyph unicode="&#x10e;" horiz-adv-x="1464" d="M203 139v1088h-133v227h592q340 0 540.5 -192.5t200.5 -532.5t-201 -534.5t-540 -194.5h-320q-74 0 -106.5 32.5t-32.5 106.5zM471 272q0 -45 45 -45h131q221 0 349 130t128 372q0 238 -129 368t-348 130h-176v-955zM575 1550l-188 279h195l102 -166h4l103 166h196 l-190 -279h-222z" />
<glyph unicode="&#x10f;" horiz-adv-x="1472" d="M66 522q0 246 133 396.5t342 150.5q199 0 290 -113l11 -14h4q-2 27 -2 62v184q0 45 -45 45h-82v221h248q139 0 139 -139v-1051q0 -45 45 -45h80v-219h-240q-129 0 -129 106v39h-4q-4 -6 -11 -18t-35 -41t-61.5 -51.5t-92 -41t-126.5 -18.5q-211 0 -337.5 151.5 t-126.5 395.5zM588 195q111 0 186.5 82.5t75.5 246.5q0 131 -67.5 226.5t-190.5 95.5q-113 0 -187.5 -87t-74.5 -237q0 -147 71.5 -237t186.5 -90zM1200 1454h195q14 -51 14 -104q0 -82 -53 -193h-172q39 104 39 172q0 59 -23 125z" />
<glyph unicode="&#x110;" horiz-adv-x="1464" d="M203 139v477h-99v215h99v396h-133v227h592q340 0 540.5 -192.5t200.5 -532.5t-201 -534.5t-540 -194.5h-320q-74 0 -106.5 32.5t-32.5 106.5zM471 272q0 -45 45 -45h131q221 0 349 130t128 372q0 238 -129 368t-348 130h-176v-396h252v-215h-252v-344z" />
<glyph unicode="&#x111;" horiz-adv-x="1275" d="M530 -25q-211 0 -337.5 152t-126.5 395q0 246 133 396.5t342 150.5q199 0 290 -113l11 -14h4q-2 27 -2 62v141h-260v155h260v154h260v-154h151v-155h-151v-881q0 -45 45 -45h80v-219h-240q-129 0 -129 106v39h-4q-4 -6 -11 -18t-35 -41t-61.5 -51.5t-92 -41t-126.5 -18.5 zM588 195q111 0 186.5 82.5t75.5 246.5q0 131 -67.5 226.5t-190.5 95.5q-113 0 -187.5 -87t-74.5 -237q0 -147 71.5 -237t186.5 -90z" />
<glyph unicode="&#x112;" horiz-adv-x="1183" d="M203 139v1088h-133v227h878q139 0 139 -139v-221h-243v88q0 45 -45 45h-328v-381h471v-228h-471v-346q0 -45 45 -45h336q45 0 45 45v88h244v-221q0 -74 -34 -106.5t-106 -32.5h-659q-74 0 -106.5 32.5t-32.5 106.5zM342 1604v172h537v-172h-537z" />
<glyph unicode="&#x113;" horiz-adv-x="1140" d="M66 522q0 242 147 394.5t383 152.5q217 0 340 -140.5t123 -355.5l-6 -96h-721q14 -133 102 -206.5t211 -73.5q74 0 147.5 28.5t108.5 57.5l37 30l109 -180q-6 -6 -18.5 -17.5t-54.5 -38t-87 -47t-116 -38t-144 -17.5q-252 0 -406.5 159t-154.5 388zM340 657h453 q-2 92 -58.5 151.5t-138.5 59.5q-100 0 -166.5 -56.5t-89.5 -154.5zM322 1227v172h536v-172h-536z" />
<glyph unicode="&#x114;" horiz-adv-x="1183" d="M203 139v1088h-133v227h878q139 0 139 -139v-221h-243v88q0 45 -45 45h-328v-381h471v-228h-471v-346q0 -45 45 -45h336q45 0 45 45v88h244v-221q0 -74 -34 -106.5t-106 -32.5h-659q-74 0 -106.5 32.5t-32.5 106.5zM608.5 1542q-116.5 0 -205 70.5t-88.5 191.5v25h166 v-25q0 -59 38 -90t89 -31t89 32t38 91v23h166v-25q0 -121 -88 -191.5t-204.5 -70.5z" />
<glyph unicode="&#x115;" horiz-adv-x="1140" d="M66 522q0 242 147 394.5t383 152.5q217 0 340 -140.5t123 -355.5l-6 -96h-721q14 -133 102 -206.5t211 -73.5q74 0 147.5 28.5t108.5 57.5l37 30l109 -180q-6 -6 -18.5 -17.5t-54.5 -38t-87 -47t-116 -38t-144 -17.5q-252 0 -406.5 159t-154.5 388zM340 657h453 q-2 92 -58.5 151.5t-138.5 59.5q-100 0 -166.5 -56.5t-89.5 -154.5zM590 1165q-117 0 -205 71t-88 191v25h166v-25q0 -59 38 -89.5t89 -30.5t89 31.5t38 91.5v22h166v-25q0 -121 -88 -191.5t-205 -70.5z" />
<glyph unicode="&#x116;" horiz-adv-x="1183" d="M203 139v1088h-133v227h878q139 0 139 -139v-221h-243v88q0 45 -45 45h-328v-381h471v-228h-471v-346q0 -45 45 -45h336q45 0 45 45v88h244v-221q0 -74 -34 -106.5t-106 -32.5h-659q-74 0 -106.5 32.5t-32.5 106.5zM496 1591v238h225v-238h-225z" />
<glyph unicode="&#x117;" horiz-adv-x="1140" d="M66 522q0 242 147 394.5t383 152.5q217 0 340 -140.5t123 -355.5l-6 -96h-721q14 -133 102 -206.5t211 -73.5q74 0 147.5 28.5t108.5 57.5l37 30l109 -180q-6 -6 -18.5 -17.5t-54.5 -38t-87 -47t-116 -38t-144 -17.5q-252 0 -406.5 159t-154.5 388zM340 657h453 q-2 92 -58.5 151.5t-138.5 59.5q-100 0 -166.5 -56.5t-89.5 -154.5zM477 1214v238h225v-238h-225z" />
<glyph unicode="&#x118;" horiz-adv-x="1183" d="M203 139v1088h-133v227h878q139 0 139 -139v-221h-243v88q0 45 -45 45h-328v-381h471v-228h-471v-346q0 -45 45 -45h336q45 0 45 45v88h244v-221q0 -76 -51 -125q-133 -109 -134 -174q6 -61 99 -73l-62 -193q-10 0 -27.5 3t-60.5 16.5t-75.5 33t-60.5 57t-28 87.5 q0 121 131 225v4h-530q-74 0 -106.5 32.5t-32.5 106.5z" />
<glyph unicode="&#x119;" horiz-adv-x="1140" d="M66 522q0 242 147 394.5t383 152.5q217 0 340 -140.5t123 -355.5l-6 -96h-721q14 -133 102 -206.5t211 -73.5q74 0 147.5 28.5t108.5 57.5l37 30l109 -180q-14 -14 -91 -72.5t-119 -110.5t-42 -110q0 -29 24.5 -47t48.5 -22l27 -4l-64 -193q-10 0 -26.5 3t-59.5 16.5 t-76.5 33t-60 57t-26.5 87.5q0 104 118 206v5q-37 -6 -73 -7q-252 0 -406.5 159t-154.5 388zM340 657h453q-4 94 -59.5 152.5t-137.5 58.5q-100 0 -166.5 -56.5t-89.5 -154.5z" />
<glyph unicode="&#x11a;" horiz-adv-x="1183" d="M203 139v1088h-133v227h878q139 0 139 -139v-221h-243v88q0 45 -45 45h-328v-381h471v-228h-471v-346q0 -45 45 -45h336q45 0 45 45v88h244v-221q0 -74 -34 -106.5t-106 -32.5h-659q-74 0 -106.5 32.5t-32.5 106.5zM498 1550l-189 279h195l102 -166h4l103 166h196 l-190 -279h-221z" />
<glyph unicode="&#x11b;" horiz-adv-x="1140" d="M66 522q0 242 147 394.5t383 152.5q217 0 340 -140.5t123 -355.5l-6 -96h-721q14 -133 102 -206.5t211 -73.5q74 0 147.5 28.5t108.5 57.5l37 30l109 -180q-6 -6 -18.5 -17.5t-54.5 -38t-87 -47t-116 -38t-144 -17.5q-252 0 -406.5 159t-154.5 388zM340 657h453 q-2 92 -58.5 151.5t-138.5 59.5q-100 0 -166.5 -56.5t-89.5 -154.5zM479 1174l-188 278h194l103 -166h4l102 166h197l-191 -278h-221z" />
<glyph unicode="&#x11c;" horiz-adv-x="1519" d="M63 735q0 315 212 529.5t528 214.5q100 0 191 -19.5t150.5 -46.5t103.5 -53.5t65 -44.5l20 -21l-151 -192q-16 14 -48 35.5t-129.5 57.5t-195.5 36q-195 0 -331 -138.5t-136 -355.5q0 -231 138 -371.5t339 -140.5q203 0 352 135l17 17v108q0 45 -45 45h-88v228h235 q74 0 107 -33t33 -104v-621h-230v70l2 61h-4q-6 -6 -18.5 -16.5t-54.5 -38t-88 -48t-118.5 -37t-148.5 -16.5q-295 0 -501 209t-206 551zM498 1550l186 279h223l189 -279h-195l-102 166h-4l-105 -166h-192z" />
<glyph unicode="&#x11d;" horiz-adv-x="1253" d="M66 549q0 225 122.5 372.5t339.5 147.5q68 0 126.5 -15.5t92 -37t59 -43t34.5 -35.5l10 -16h4v26q0 39 28.5 67.5t86.5 28.5h241v-221h-80q-45 0 -45 -41v-719q0 -129 -47 -227t-127 -154.5t-175 -84t-201 -27.5q-201 0 -371 90l80 205q129 -70 288 -70q129 0 212 61.5 t83 194.5v49l2 56h-4q-94 -135 -290 -136q-217 0 -343 153t-126 376zM590 240q106 0 175 71.5t69 235.5q0 301 -261 301q-117 0 -180 -78t-63 -213q0 -141 68.5 -229t191.5 -88zM340 1174l186 278h224l188 -278h-195l-102 165h-4l-105 -165h-192z" />
<glyph unicode="&#x11e;" horiz-adv-x="1519" d="M63 735q0 315 212 529.5t528 214.5q100 0 191 -19.5t150.5 -46.5t103.5 -53.5t65 -44.5l20 -21l-151 -192q-16 14 -48 35.5t-129.5 57.5t-195.5 36q-195 0 -331 -138.5t-136 -355.5q0 -231 138 -371.5t339 -140.5q203 0 352 135l17 17v108q0 45 -45 45h-88v228h235 q74 0 107 -33t33 -104v-621h-230v70l2 61h-4q-6 -6 -18.5 -16.5t-54.5 -38t-88 -48t-118.5 -37t-148.5 -16.5q-295 0 -501 209t-206 551zM794.5 1542q-116.5 0 -204.5 70.5t-88 191.5v25h166v-25q0 -59 37.5 -90t89 -31t89.5 32t38 91v23h165v-25q0 -121 -88 -191.5 t-204.5 -70.5z" />
<glyph unicode="&#x11f;" horiz-adv-x="1253" d="M66 549q0 225 122.5 372.5t339.5 147.5q68 0 126.5 -15.5t92 -37t59 -43t34.5 -35.5l10 -16h4v26q0 39 28.5 67.5t86.5 28.5h241v-221h-80q-45 0 -45 -41v-719q0 -129 -47 -227t-127 -154.5t-175 -84t-201 -27.5q-201 0 -371 90l80 205q129 -70 288 -70q129 0 212 61.5 t83 194.5v49l2 56h-4q-94 -135 -290 -136q-217 0 -343 153t-126 376zM590 240q106 0 175 71.5t69 235.5q0 301 -261 301q-117 0 -180 -78t-63 -213q0 -141 68.5 -229t191.5 -88zM639 1165q-117 0 -205 71t-88 191v25h166v-25q0 -59 38 -89.5t89 -30.5t89 31.5t38 91.5v22 h166v-25q0 -121 -88 -191.5t-205 -70.5z" />
<glyph unicode="&#x120;" horiz-adv-x="1519" d="M63 735q0 315 212 529.5t528 214.5q100 0 191 -19.5t150.5 -46.5t103.5 -53.5t65 -44.5l20 -21l-151 -192q-16 14 -48 35.5t-129.5 57.5t-195.5 36q-195 0 -331 -138.5t-136 -355.5q0 -231 138 -371.5t339 -140.5q203 0 352 135l17 17v108q0 45 -45 45h-88v228h235 q74 0 107 -33t33 -104v-621h-230v70l2 61h-4q-6 -6 -18.5 -16.5t-54.5 -38t-88 -48t-118.5 -37t-148.5 -16.5q-295 0 -501 209t-206 551zM684 1591v238h225v-238h-225z" />
<glyph unicode="&#x121;" horiz-adv-x="1253" d="M66 549q0 225 122.5 372.5t339.5 147.5q68 0 126.5 -15.5t92 -37t59 -43t34.5 -35.5l10 -16h4v26q0 39 28.5 67.5t86.5 28.5h241v-221h-80q-45 0 -45 -41v-719q0 -129 -47 -227t-127 -154.5t-175 -84t-201 -27.5q-201 0 -371 90l80 205q129 -70 288 -70q129 0 212 61.5 t83 194.5v49l2 56h-4q-94 -135 -290 -136q-217 0 -343 153t-126 376zM590 240q106 0 175 71.5t69 235.5q0 301 -261 301q-117 0 -180 -78t-63 -213q0 -141 68.5 -229t191.5 -88zM526 1214v238h226v-238h-226z" />
<glyph unicode="&#x122;" horiz-adv-x="1519" d="M63 735q0 315 212 529.5t528 214.5q100 0 191 -19.5t150.5 -46.5t103.5 -53.5t65 -44.5l20 -21l-151 -192q-16 14 -48 35.5t-129.5 57.5t-195.5 36q-195 0 -331 -138.5t-136 -355.5q0 -231 138 -371.5t339 -140.5q203 0 352 135l17 17v108q0 45 -45 45h-88v228h235 q74 0 107 -33t33 -104v-621h-230v70l2 61h-4q-6 -6 -18.5 -16.5t-54.5 -38t-88 -48t-118.5 -37t-148.5 -16.5q-295 0 -501 209t-206 551zM686 -113h195q14 -51 14 -104q0 -82 -53 -193h-172q39 104 39 172q0 59 -23 125z" />
<glyph unicode="&#x123;" horiz-adv-x="1253" d="M66 549q0 225 122.5 372.5t339.5 147.5q68 0 126.5 -15.5t92 -37t59 -43t34.5 -35.5l10 -16h4v26q0 39 28.5 67.5t86.5 28.5h241v-221h-80q-45 0 -45 -41v-719q0 -129 -47 -227t-127 -154.5t-175 -84t-201 -27.5q-201 0 -371 90l80 205q129 -70 288 -70q129 0 212 61.5 t83 194.5v49l2 56h-4q-94 -135 -290 -136q-217 0 -343 153t-126 376zM590 240q106 0 175 71.5t69 235.5q0 301 -261 301q-117 0 -180 -78t-63 -213q0 -141 68.5 -229t191.5 -88zM705 1157h-195q-14 51 -14 105q0 82 53 192h172q-39 -104 -39 -172q0 -59 23 -125z" />
<glyph unicode="&#x124;" horiz-adv-x="1583" d="M203 0v1182q0 45 -45 45h-88v227h262q74 0 106.5 -34t32.5 -105v-477h641v477q0 139 139 139h262v-227h-88q-45 0 -45 -45v-1182h-268v610h-641v-610h-268zM496 1550l186 279h223l189 -279h-195l-102 166h-4l-105 -166h-192z" />
<glyph unicode="&#x125;" horiz-adv-x="1310" d="M162 0v1188q0 45 -45 45h-82v221h248q139 0 139 -137v-367l-4 -88h4q41 84 136 145.5t222 61.5q365 0 365 -397v-408q0 -45 45 -45h82v-219h-248q-72 0 -104.5 33t-32.5 106v479q0 104 -37 158.5t-129 54.5q-100 0 -176 -60t-107 -157q-16 -55 -16 -135v-479h-260z M373 1550l186 279h223l189 -279h-195l-102 166h-4l-105 -166h-192z" />
<glyph unicode="&#x126;" horiz-adv-x="1583" d="M203 0v1055h-135v170h135v229h268v-229h641v229h268v-229h133v-170h-133v-1055h-268v610h-641v-610h-268zM471 838h641v217h-641v-217z" />
<glyph unicode="&#x127;" horiz-adv-x="1310" d="M162 0v1145h-150v155h150v154h260v-154h258v-155h-258v-195l-4 -88h4q6 18 27.5 47t62.5 68t112.5 65.5t155.5 26.5q365 0 365 -397v-408q0 -45 45 -45h82v-219h-248q-72 0 -104.5 33t-32.5 106v479q0 102 -37 157.5t-129 55.5q-137 0 -218 -100t-81 -252v-479h-260z" />
<glyph unicode="&#x128;" horiz-adv-x="700" d="M78 0v227h145v1000h-145v227h545v-227h-146v-1000h146v-227h-545zM-23 1552q0 281 234 281q59 0 107.5 -34t84 -66.5t70.5 -32.5q41 0 62.5 37t21.5 90h162q0 -281 -234 -281q-59 0 -107 34t-84 66.5t-71 32.5q-41 0 -62.5 -35.5t-21.5 -91.5h-162z" />
<glyph unicode="&#x129;" horiz-adv-x="618" d="M180 139v639q0 45 -45 45h-82v221h248q139 0 139 -139v-641q0 -45 45 -45h80v-219h-246q-74 0 -106.5 32.5t-32.5 106.5zM-37 1178q0 281 209 280q41 0 76 -19.5t56.5 -43t45 -43t41.5 -19.5q68 0 68 119h162q0 -141 -50.5 -211t-158.5 -70q-51 0 -93.5 31t-72 62.5 t-51.5 31.5q-70 0 -70 -118h-162z" />
<glyph unicode="&#x12a;" horiz-adv-x="700" d="M78 0v227h145v1000h-145v227h545v-227h-146v-1000h146v-227h-545zM82 1604v172h536v-172h-536z" />
<glyph unicode="&#x12b;" horiz-adv-x="618" d="M180 139v639q0 45 -45 45h-82v221h248q139 0 139 -139v-641q0 -45 45 -45h80v-219h-246q-74 0 -106.5 32.5t-32.5 106.5zM41 1229v170h508v-170h-508z" />
<glyph unicode="&#x12c;" horiz-adv-x="700" d="M78 0v227h145v1000h-145v227h545v-227h-146v-1000h146v-227h-545zM350 1542q-117 0 -205 70.5t-88 191.5v25h166v-25q0 -59 38 -90t89 -31t89 32t38 91v23h166v-25q0 -121 -88 -191.5t-205 -70.5z" />
<glyph unicode="&#x12d;" horiz-adv-x="618" d="M180 139v639q0 45 -45 45h-82v221h248q139 0 139 -139v-641q0 -45 45 -45h80v-219h-246q-74 0 -106.5 32.5t-32.5 106.5zM293 1165q-117 0 -205 71t-88 194v24h168v-24q0 -59 37 -91t88 -32t89 31.5t38 91.5v24h166v-24q0 -123 -88 -194t-205 -71z" />
<glyph unicode="&#x12e;" horiz-adv-x="700" d="M78 0v227h145v1000h-145v227h545v-227h-146v-1000h146v-227q-113 -94 -113 -160q0 -29 25.5 -47t50.5 -22l24 -4l-63 -193q-10 0 -26.5 3t-59.5 16.5t-77 33t-60.5 57t-26.5 87.5q0 125 131 225v4h-350z" />
<glyph unicode="&#x12f;" horiz-adv-x="612" d="M190 1214v240h226v-240h-226zM51 1044h248q72 0 104.5 -33.5t32.5 -105.5v-641q0 -45 45 -45h82v-219q-113 -94 -112 -160q6 -61 98 -73l-62 -193q-10 0 -27.5 3t-60.5 16.5t-75.5 33t-60 57t-27.5 87.5q0 123 133 225v4h-62q-129 0 -129 160v618q0 45 -45 45h-82v221z " />
<glyph unicode="&#x130;" horiz-adv-x="700" d="M78 0v227h145v1000h-145v227h545v-227h-146v-1000h146v-227h-545zM236 1591v238h225v-238h-225z" />
<glyph unicode="&#x131;" horiz-adv-x="618" d="M180 139v639q0 45 -45 45h-82v221h248q139 0 139 -139v-641q0 -45 45 -45h80v-219h-246q-74 0 -106.5 32.5t-32.5 106.5z" />
<glyph unicode="&#x132;" horiz-adv-x="1474" d="M793 -8v239q45 0 87 12.5t84 41t67.5 88t25.5 143.5v666q0 45 -45 45h-215v227h391q72 0 104.5 -34t32.5 -105v-803q0 -520 -532 -520zM78 0v227h145v1000h-145v227h545v-227h-146v-1000h146v-227h-545z" />
<glyph unicode="&#x133;" horiz-adv-x="1216" d="M190 1214v240h226v-240h-226zM178 139v639q0 45 -45 45h-82v221h248q72 0 104.5 -33.5t32.5 -105.5v-641q0 -45 45 -45h82v-219h-248q-72 0 -104.5 32.5t-32.5 106.5zM819 1214v240h225v-240h-225zM553 -199q18 -4 45 -4q35 0 65.5 7.5t65.5 24.5t56.5 59t21.5 102v788 q0 45 -45 45h-80v221h246q74 0 106.5 -33.5t32.5 -105.5v-936q0 -100 -33 -175t-79 -114.5t-109.5 -64.5t-113.5 -32t-101 -7l-78 6v219z" />
<glyph unicode="&#x134;" horiz-adv-x="1103" d="M41 430v84h268v-59q0 -121 54.5 -175.5t136.5 -54.5t135 53.5t53 163.5v740q0 45 -45 45h-352v227h526q139 0 139 -139v-885q0 -223 -135 -339t-323 -116q-186 0 -321.5 117t-135.5 338zM311 1550l187 279h223l188 -279h-194l-103 166h-4l-104 -166h-193z" />
<glyph unicode="&#x135;" horiz-adv-x="618" d="M-16 1174l188 280h223l189 -280h-195l-104 169l-105 -169h-196zM-39 -205q18 -2 45 -2q35 0 65.5 7t65.5 24.5t56.5 59.5t21.5 102v800q0 45 -55 45h-72v213h242q76 0 107.5 -24.5t31.5 -93.5v-957q0 -100 -31.5 -175t-78 -114.5t-109 -64.5t-111.5 -32t-100 -7l-78 6 v213z" />
<glyph unicode="&#x136;" horiz-adv-x="1298" d="M203 0v1182q0 45 -45 45h-88v227h262q74 0 106.5 -34t32.5 -105v-453h102q90 0 117 47l293 545h295l-328 -598q-45 -82 -92 -106v-5q49 -12 94 -100l185 -371q23 -47 102 -47h39v-227h-154q-86 0 -127 20.5t-75 88.5l-238 477q-16 33 -45 41t-82 8h-86v-635h-268z M594 -113h194q14 -51 15 -104q0 -82 -53 -193h-172q39 104 38 172q1 59 -22 125z" />
<glyph unicode="&#x137;" horiz-adv-x="1132" d="M162 0v1188q0 45 -45 45h-82v221h248q76 0 107.5 -24.5t31.5 -94.5v-659h78q72 0 98 39l213 329h289l-264 -393q-20 -29 -40 -49t-30 -27l-8 -6v-4q37 -14 73 -82l119 -225q20 -39 86 -39h70v-219h-193q-68 0 -100.5 17.5t-62.5 72.5l-175 328q-23 39 -96 39h-57v-457 h-260zM508 -113h194q14 -51 15 -104q0 -82 -53 -193h-172q39 104 38 172q1 59 -22 125z" />
<glyph unicode="&#x138;" horiz-adv-x="1132" d="M162 0v778q0 45 -45 45h-82v221h248q76 0 107.5 -24.5t31.5 -93.5v-287h78q76 0 98 39l219 366h287l-273 -426q-18 -29 -37.5 -49t-27.5 -24l-10 -6v-4q35 -14 71 -84l103 -193q20 -39 86 -39h80v-219h-203q-68 0 -100.5 17.5t-63.5 72.5l-154 291q-20 39 -96 39h-57 v-420h-260z" />
<glyph unicode="&#x139;" horiz-adv-x="1142" d="M203 139v1043q0 45 -45 45h-88v227h262q74 0 106.5 -34t32.5 -105v-1043q0 -45 45 -45h318q45 0 45 45v88h243v-221q0 -74 -32.5 -106.5t-106.5 -32.5h-641q-74 0 -106.5 32.5t-32.5 106.5zM264 1550l156 279h250l-215 -279h-191z" />
<glyph unicode="&#x13a;" horiz-adv-x="595" d="M164 139v1049q0 45 -45 45h-82v221h248q139 0 139 -139v-1051q0 -45 45 -45h80v-219h-246q-74 0 -106.5 32.5t-32.5 106.5zM158 1550l155 279h250l-215 -279h-190z" />
<glyph unicode="&#x13b;" horiz-adv-x="1142" d="M203 139v1043q0 45 -45 45h-88v227h262q74 0 106.5 -34t32.5 -105v-1043q0 -45 45 -45h318q45 0 45 45v88h243v-221q0 -74 -32.5 -106.5t-106.5 -32.5h-641q-74 0 -106.5 32.5t-32.5 106.5zM555 -113h195q14 -51 14 -104q0 -82 -53 -193h-172q39 104 39 172q0 59 -23 125 z" />
<glyph unicode="&#x13c;" horiz-adv-x="595" d="M164 139v1049q0 45 -45 45h-82v221h248q139 0 139 -139v-1051q0 -45 45 -45h80v-219h-246q-74 0 -106.5 32.5t-32.5 106.5zM217 -113h195q14 -51 14 -104q0 -82 -53 -193h-172q39 104 39 172q0 59 -23 125z" />
<glyph unicode="&#x13d;" horiz-adv-x="1142" d="M203 139v1043q0 45 -45 45h-88v227h262q74 0 106.5 -34t32.5 -105v-1043q0 -45 45 -45h318q45 0 45 45v88h243v-221q0 -74 -32.5 -106.5t-106.5 -32.5h-641q-74 0 -106.5 32.5t-32.5 106.5zM631 1454h194q14 -51 15 -104q0 -82 -54 -193h-172q39 104 39 172q1 59 -22 125 z" />
<glyph unicode="&#x13e;" horiz-adv-x="800" d="M164 139v1049q0 45 -45 45h-82v221h248q139 0 139 -139v-1051q0 -45 45 -45h80v-219h-246q-74 0 -106.5 32.5t-32.5 106.5zM528 1454h195q14 -51 14 -104q0 -82 -53 -193h-172q39 104 39 172q0 59 -23 125z" />
<glyph unicode="&#x13f;" horiz-adv-x="1142" d="M203 139v1043q0 45 -45 45h-88v227h262q74 0 106.5 -34t32.5 -105v-1043q0 -45 45 -45h318q45 0 45 45v88h243v-221q0 -74 -32.5 -106.5t-106.5 -32.5h-641q-74 0 -106.5 32.5t-32.5 106.5zM674 662v258h252v-258h-252z" />
<glyph unicode="&#x140;" horiz-adv-x="835" d="M164 139v1049q0 45 -45 45h-82v221h248q139 0 139 -139v-1051q0 -45 45 -45h80v-219h-246q-74 0 -106.5 32.5t-32.5 106.5zM573 662v258h252v-258h-252z" />
<glyph unicode="&#x141;" horiz-adv-x="1142" d="M203 139v406l-127 -72v254l127 72v383q0 45 -45 45h-88v227h262q74 0 106.5 -34t32.5 -105v-363l201 117v-254l-201 -117v-426q0 -45 45 -45h318q45 0 45 45v88h243v-221q0 -74 -32.5 -106.5t-106.5 -32.5h-641q-74 0 -106.5 32.5t-32.5 106.5z" />
<glyph unicode="&#x142;" horiz-adv-x="620" d="M180 139v445l-135 -76v256l135 78v346q0 45 -45 45h-82v221h248q72 0 104.5 -34t32.5 -105v-326l150 84v-254l-150 -86v-469q0 -45 45 -45h82v-219h-248q-72 0 -104.5 32.5t-32.5 106.5z" />
<glyph unicode="&#x143;" horiz-adv-x="1576" d="M70 0v227h88q45 0 45 45v1182h241l551 -805q57 -84 121 -205h4q-14 121 -14 205v666q0 72 32.5 105.5t106.5 33.5h262v-227h-88q-45 0 -45 -45v-1182h-239l-553 803q-57 82 -121 205h-4q14 -121 14 -205v-664q0 -74 -32.5 -106.5t-106.5 -32.5h-262zM707 1550l155 279 h250l-215 -279h-190z" />
<glyph unicode="&#x144;" horiz-adv-x="1316" d="M170 0v778q0 45 -45 45h-82v221h240q137 0 137 -116v-31l-4 -45h4q43 86 135 151.5t233 65.5q365 0 365 -397v-408q0 -45 45 -45h82v-219h-248q-74 0 -106.5 33t-32.5 106v479q0 104 -36 158.5t-128 54.5q-102 0 -177 -58t-103 -155q-20 -61 -21 -139v-479h-258z M573 1174l156 278h250l-215 -278h-191z" />
<glyph unicode="&#x145;" horiz-adv-x="1576" d="M70 0v227h88q45 0 45 45v1182h241l551 -805q57 -84 121 -205h4q-14 121 -14 205v666q0 72 32.5 105.5t106.5 33.5h262v-227h-88q-45 0 -45 -45v-1182h-239l-553 803q-57 82 -121 205h-4q14 -121 14 -205v-664q0 -74 -32.5 -106.5t-106.5 -32.5h-262zM686 -113h195 q14 -51 14 -104q0 -82 -53 -193h-172q39 104 39 172q0 59 -23 125z" />
<glyph unicode="&#x146;" horiz-adv-x="1316" d="M170 0v778q0 45 -45 45h-82v221h240q137 0 137 -116v-31l-4 -45h4q43 86 135 151.5t233 65.5q365 0 365 -397v-408q0 -45 45 -45h82v-219h-248q-74 0 -106.5 33t-32.5 106v479q0 104 -36 158.5t-128 54.5q-102 0 -177 -58t-103 -155q-20 -61 -21 -139v-479h-258z M575 -113h195q14 -51 14 -104q0 -82 -53 -193h-172q39 104 39 172q0 59 -23 125z" />
<glyph unicode="&#x147;" horiz-adv-x="1576" d="M70 0v227h88q45 0 45 45v1182h241l551 -805q57 -84 121 -205h4q-14 121 -14 205v666q0 72 32.5 105.5t106.5 33.5h262v-227h-88q-45 0 -45 -45v-1182h-239l-553 803q-57 82 -121 205h-4q14 -121 14 -205v-664q0 -74 -32.5 -106.5t-106.5 -32.5h-262zM696 1550l-188 279 h194l103 -166h4l102 166h197l-190 -279h-222z" />
<glyph unicode="&#x148;" horiz-adv-x="1316" d="M170 0v778q0 45 -45 45h-82v221h240q137 0 137 -116v-31l-4 -45h4q43 86 135 151.5t233 65.5q365 0 365 -397v-408q0 -45 45 -45h82v-219h-248q-74 0 -106.5 33t-32.5 106v479q0 104 -36 158.5t-128 54.5q-102 0 -177 -58t-103 -155q-20 -61 -21 -139v-479h-258z M563 1174l-188 278h194l103 -166h4l102 166h197l-191 -278h-221z" />
<glyph unicode="&#x149;" horiz-adv-x="1384" d="M236 0v778q0 45 -46 45h-81v221h239q137 0 137 -116v-31l-4 -45h4q43 86 135.5 151.5t233.5 65.5q365 0 365 -397v-408q0 -45 45 -45h82v-219h-248q-74 0 -107 33t-33 106v479q0 104 -35.5 158.5t-127.5 54.5q-102 0 -177 -58t-104 -155q-20 -61 -20 -139v-479h-258z M-20 1454h194q14 -51 14 -104q0 -82 -53 -193h-172q39 104 39 172q1 59 -22 125z" />
<glyph unicode="&#x14a;" horiz-adv-x="1576" d="M70 0v227h88q45 0 45 45v1182h241l551 -805q57 -84 121 -205h4q-14 121 -14 205v666q0 72 32.5 105.5t106.5 33.5h262v-227h-88q-45 0 -45 -45v-1094q0 -145 -47 -250.5t-127 -159t-166 -76t-186 -22.5v240q88 0 173 54t85 157v16l-524 756q-57 82 -121 205h-4 q14 -121 14 -205v-664q0 -74 -32.5 -106.5t-106.5 -32.5h-262z" />
<glyph unicode="&#x14b;" horiz-adv-x="1306" d="M170 0v778q0 45 -45 45h-82v221h240q137 0 137 -116v-31l-4 -45h4q43 86 135 151.5t233 65.5q365 0 365 -397v-707q0 -100 -33 -175t-79 -115t-109.5 -64.5t-113.5 -31.5t-101 -7l-78 6v219q18 -2 45 -2q209 0 209 191v632q0 104 -36 158.5t-128 54.5q-102 0 -178 -60 t-105 -157q-18 -53 -18 -135v-479h-258z" />
<glyph unicode="&#x14c;" horiz-adv-x="1626" d="M61 737q0 313 216.5 527.5t536 214.5t535.5 -214t216 -528q0 -322 -216 -542t-535.5 -220t-536 220t-216.5 542zM340 737q0 -217 137 -364.5t336 -147.5t336 147.5t137 364.5q0 207 -137 349.5t-336 142.5t-336 -142.5t-137 -349.5zM541 1604v172h536v-172h-536z" />
<glyph unicode="&#x14d;" horiz-adv-x="1275" d="M66 522.5q0 237.5 164.5 392t406.5 154.5t407.5 -154.5t165.5 -392t-164.5 -392.5t-408.5 -155q-242 0 -406.5 155t-164.5 392.5zM328 522q0 -143 90 -234t219 -91q131 0 221 91t90 234q0 141 -91 233.5t-220 92.5t-219 -92.5t-90 -233.5zM371 1227v172h536v-172h-536z " />
<glyph unicode="&#x14e;" horiz-adv-x="1626" d="M61 737q0 313 216.5 527.5t536 214.5t535.5 -214t216 -528q0 -322 -216 -542t-535.5 -220t-536 220t-216.5 542zM340 737q0 -217 137 -364.5t336 -147.5t336 147.5t137 364.5q0 207 -137 349.5t-336 142.5t-336 -142.5t-137 -349.5zM809 1542q-117 0 -205 70.5t-88 191.5 v25h166v-25q0 -59 38 -90t89 -31t89 32t38 91v23h166v-25q0 -121 -88 -191.5t-205 -70.5z" />
<glyph unicode="&#x14f;" horiz-adv-x="1275" d="M66 522.5q0 237.5 164.5 392t406.5 154.5t407.5 -154.5t165.5 -392t-164.5 -392.5t-408.5 -155q-242 0 -406.5 155t-164.5 392.5zM328 522q0 -143 90 -234t219 -91q131 0 221 91t90 234q0 141 -91 233.5t-220 92.5t-219 -92.5t-90 -233.5zM637 1165q-117 0 -205 71 t-88 191v25h166v-25q0 -59 38 -89.5t89 -30.5t89 31.5t38 91.5v22h166v-25q0 -121 -88 -191.5t-205 -70.5z" />
<glyph unicode="&#x150;" horiz-adv-x="1626" d="M61 737q0 313 216.5 527.5t536 214.5t535.5 -214t216 -528q0 -322 -216 -542t-535.5 -220t-536 220t-216.5 542zM340 737q0 -217 137 -364.5t336 -147.5t336 147.5t137 364.5q0 207 -137 349.5t-336 142.5t-336 -142.5t-137 -349.5zM877 1550l157 279h248l-213 -279h-192 zM524 1550l148 279h213l-152 -279h-209z" />
<glyph unicode="&#x151;" horiz-adv-x="1275" d="M66 522.5q0 237.5 164.5 392t406.5 154.5t407.5 -154.5t165.5 -392t-164.5 -392.5t-408.5 -155q-242 0 -406.5 155t-164.5 392.5zM328 522q0 -143 90 -234t219 -91q131 0 221 91t90 234q0 141 -91 233.5t-220 92.5t-219 -92.5t-90 -233.5zM705 1174l157 278h248 l-213 -278h-192zM352 1174l148 278h213l-152 -278h-209z" />
<glyph unicode="&#x152;" horiz-adv-x="1945" d="M61 729q0 313 211 527t519 214q70 0 163 -8t133 -8h621q74 0 106.5 -34t32.5 -105v-221h-241v88q0 45 -45 45h-322v-381h465v-228h-465v-391h375q45 0 45 45v88h242v-221q0 -74 -32 -106.5t-102 -32.5h-680q-39 0 -133 -9t-163 -9q-307 0 -518.5 217t-211.5 530zM340 729 q0 -215 127 -356.5t324 -141.5q123 0 180 15v960q-72 16 -180 17q-197 0 -324 -140.5t-127 -353.5z" />
<glyph unicode="&#x153;" horiz-adv-x="2035" d="M66 520.5q0 241.5 164.5 395t404.5 153.5q283 0 440 -215h4q135 215 412 215q219 0 341 -140.5t122 -355.5l-6 -96h-721q18 -135 105 -207.5t208 -72.5q156 0 289 110l6 6l107 -180q-6 -6 -18.5 -17.5t-54.5 -38t-87 -47t-116 -38t-144 -17.5q-293 0 -437 222h-4 q-160 -221 -444 -222q-242 0 -406.5 152t-164.5 393.5zM1235 657h453q-4 94 -58.5 152.5t-138.5 58.5q-100 0 -166.5 -56.5t-89.5 -154.5zM328 520.5q0 -145.5 90 -234.5t219 -89q131 0 221 90t90 235.5t-91 235.5t-220 90t-219 -91t-90 -236.5z" />
<glyph unicode="&#x154;" horiz-adv-x="1294" d="M203 0v1227h-133v227h651q203 0 328 -117.5t125 -320.5q0 -92 -29 -168t-71 -119t-79 -66.5t-63 -29.5v-4q45 -20 72 -74l141 -281q25 -47 102 -47h27v-227h-141q-84 0 -126 20.5t-77 88.5l-187 366q-23 41 -50 54.5t-87 13.5h-135v-543h-268zM471 772h213 q102 0 158.5 60.5t56.5 168.5q0 106 -56.5 166t-154.5 60h-217v-455zM496 1550l155 279h250l-215 -279h-190z" />
<glyph unicode="&#x155;" horiz-adv-x="833" d="M170 0v778q0 45 -45 45h-82v221h238q139 0 139 -126v-62l-4 -65h4q37 117 126 192.5t206 75.5l47 -4v-256q-27 4 -64 4q-92 0 -172 -55.5t-112 -163.5q-23 -80 -23 -170v-414h-258zM336 1174l156 278h249l-215 -278h-190z" />
<glyph unicode="&#x156;" horiz-adv-x="1294" d="M203 0v1227h-133v227h651q203 0 328 -117.5t125 -320.5q0 -92 -29 -168t-71 -119t-79 -66.5t-63 -29.5v-4q45 -20 72 -74l141 -281q25 -47 102 -47h27v-227h-141q-84 0 -126 20.5t-77 88.5l-187 366q-23 41 -50 54.5t-87 13.5h-135v-543h-268zM471 772h213 q102 0 158.5 60.5t56.5 168.5q0 106 -56.5 166t-154.5 60h-217v-455zM621 -113h194q14 -51 14 -104q0 -82 -53 -193h-172q39 104 39 172q1 59 -22 125z" />
<glyph unicode="&#x157;" horiz-adv-x="833" d="M170 0v778q0 45 -45 45h-82v221h238q139 0 139 -126v-62l-4 -65h4q37 117 126 192.5t206 75.5l47 -4v-256q-27 4 -64 4q-92 0 -172 -55.5t-112 -163.5q-23 -80 -23 -170v-414h-258zM211 -113h195q14 -51 14 -104q0 -82 -53 -193h-172q39 104 38 172q1 59 -22 125z" />
<glyph unicode="&#x158;" horiz-adv-x="1294" d="M203 0v1227h-133v227h651q203 0 328 -117.5t125 -320.5q0 -92 -29 -168t-71 -119t-79 -66.5t-63 -29.5v-4q45 -20 72 -74l141 -281q25 -47 102 -47h27v-227h-141q-84 0 -126 20.5t-77 88.5l-187 366q-23 41 -50 54.5t-87 13.5h-135v-543h-268zM471 772h213 q102 0 158.5 60.5t56.5 168.5q0 106 -56.5 166t-154.5 60h-217v-455zM485 1550l-188 279h195l102 -166h4l102 166h197l-190 -279h-222z" />
<glyph unicode="&#x159;" horiz-adv-x="833" d="M170 0v778q0 45 -45 45h-82v221h238q139 0 139 -126v-62l-4 -65h4q37 117 126 192.5t206 75.5l47 -4v-256q-27 4 -64 4q-92 0 -172 -55.5t-112 -163.5q-23 -80 -23 -170v-414h-258zM326 1174l-189 278h195l102 -166h4l103 166h196l-190 -278h-221z" />
<glyph unicode="&#x15a;" horiz-adv-x="1124" d="M66 201l151 188q6 -6 17.5 -18.5t48 -42t75.5 -52t96.5 -41t114.5 -18.5q88 0 148.5 46t60.5 126q0 49 -38 91t-98 74t-133 63.5t-145.5 72.5t-133 89t-98.5 123t-38 167q0 176 137.5 293t348.5 117q94 0 188 -27t169 -95.5t75 -164.5v-135h-242v65q0 49 -58.5 81 t-133.5 32q-92 0 -152.5 -43t-60.5 -113q0 -49 37.5 -89t98 -69.5t133.5 -60.5t145.5 -69.5t133 -87t98.5 -126t38 -174.5q0 -180 -131.5 -304t-352.5 -124q-266 0 -461 185zM477 1550l156 279h250l-215 -279h-191z" />
<glyph unicode="&#x15b;" horiz-adv-x="958" d="M51 162l123 170q14 -16 42 -42t109 -69t160 -43q63 0 102.5 25.5t39.5 77.5q0 39 -56.5 72.5t-137.5 64.5t-163 70.5t-138 110.5t-56 165q0 150 115.5 227.5t289.5 77.5q59 0 117.5 -10t117 -34t95.5 -69t37 -104v-109h-230v52q0 35 -40.5 54t-90.5 19 q-72 0 -113.5 -24.5t-41.5 -69.5t57 -78.5t139 -62.5t163 -66t138.5 -106.5t57.5 -165.5q0 -145 -114 -232.5t-288 -87.5q-127 0 -235.5 47.5t-153.5 92.5zM375 1174l155 278h250l-215 -278h-190z" />
<glyph unicode="&#x15c;" horiz-adv-x="1124" d="M66 201l151 188q6 -6 17.5 -18.5t48 -42t75.5 -52t96.5 -41t114.5 -18.5q88 0 148.5 46t60.5 126q0 49 -38 91t-98 74t-133 63.5t-145.5 72.5t-133 89t-98.5 123t-38 167q0 176 137.5 293t348.5 117q94 0 188 -27t169 -95.5t75 -164.5v-135h-242v65q0 49 -58.5 81 t-133.5 32q-92 0 -152.5 -43t-60.5 -113q0 -49 37.5 -89t98 -69.5t133.5 -60.5t145.5 -69.5t133 -87t98.5 -126t38 -174.5q0 -180 -131.5 -304t-352.5 -124q-266 0 -461 185zM279 1550l186 279h223l189 -279h-195l-102 166h-5l-104 -166h-192z" />
<glyph unicode="&#x15d;" horiz-adv-x="958" d="M51 162l123 170q14 -16 42 -42t109 -69t160 -43q63 0 102.5 25.5t39.5 77.5q0 39 -56.5 72.5t-137.5 64.5t-163 70.5t-138 110.5t-56 165q0 150 115.5 227.5t289.5 77.5q59 0 117.5 -10t117 -34t95.5 -69t37 -104v-109h-230v52q0 35 -40.5 54t-90.5 19 q-72 0 -113.5 -24.5t-41.5 -69.5t57 -78.5t139 -62.5t163 -66t138.5 -106.5t57.5 -165.5q0 -145 -114 -232.5t-288 -87.5q-127 0 -235.5 47.5t-153.5 92.5zM176 1174l186 278h224l188 -278h-194l-103 165h-4l-104 -165h-193z" />
<glyph unicode="&#x15e;" horiz-adv-x="1124" d="M66 201l151 188q6 -6 17.5 -18.5t48 -42t75.5 -52t96.5 -41t114.5 -18.5q88 0 148.5 46t60.5 126q0 49 -38 91t-98 74t-133 63.5t-145.5 72.5t-133 89t-98.5 123t-38 167q0 176 137.5 293t348.5 117q94 0 188 -27t169 -95.5t75 -164.5v-135h-242v65q0 49 -58.5 81 t-133.5 32q-92 0 -152.5 -43t-60.5 -113q0 -49 37.5 -89t98 -69.5t133.5 -60.5t145.5 -69.5t133 -87t98.5 -126t38 -174.5q0 -168 -117 -289.5t-314 -136.5l-14 -67q66 -8 108 -48t42 -108q0 -94 -64.5 -137t-157.5 -43q-31 0 -62.5 4t-47.5 8l-16 2v144q45 -16 90 -17 q90 0 90 58q0 55 -99 55l-43 -4l41 158q-233 27 -397 194z" />
<glyph unicode="&#x15f;" horiz-adv-x="958" d="M51 162l123 170q14 -16 42 -42t109 -69t160 -43q63 0 102.5 25.5t39.5 77.5q0 39 -56.5 72.5t-137.5 64.5t-163 70.5t-138 110.5t-56 165q0 150 115.5 227.5t289.5 77.5q59 0 117.5 -10t117 -34t95.5 -69t37 -104v-109h-230v52q0 35 -40.5 54t-90.5 19 q-72 0 -113.5 -24.5t-41.5 -69.5t57 -78.5t139 -62.5t163 -66t138.5 -106.5t57.5 -165.5q0 -139 -104.5 -224t-268.5 -94l-14 -67q68 -8 108.5 -47t40.5 -109q0 -94 -63.5 -137t-157.5 -43q-31 0 -62.5 4t-46.5 8l-16 2v144q43 -16 90 -17q88 0 88 58q0 55 -98 55l-43 -4 l43 160q-98 16 -181 60t-116 81z" />
<glyph unicode="&#x160;" horiz-adv-x="1124" d="M66 201l151 188q6 -6 17.5 -18.5t48 -42t75.5 -52t96.5 -41t114.5 -18.5q88 0 148.5 46t60.5 126q0 49 -38 91t-98 74t-133 63.5t-145.5 72.5t-133 89t-98.5 123t-38 167q0 176 137.5 293t348.5 117q94 0 188 -27t169 -95.5t75 -164.5v-135h-242v65q0 49 -58.5 81 t-133.5 32q-92 0 -152.5 -43t-60.5 -113q0 -49 37.5 -89t98 -69.5t133.5 -60.5t145.5 -69.5t133 -87t98.5 -126t38 -174.5q0 -180 -131.5 -304t-352.5 -124q-266 0 -461 185zM467 1550l-188 279h194l102 -166h5l102 166h197l-191 -279h-221z" />
<glyph unicode="&#x161;" horiz-adv-x="958" d="M51 162l123 170q14 -16 42 -42t109 -69t160 -43q63 0 102.5 25.5t39.5 77.5q0 39 -56.5 72.5t-137.5 64.5t-163 70.5t-138 110.5t-56 165q0 150 115.5 227.5t289.5 77.5q59 0 117.5 -10t117 -34t95.5 -69t37 -104v-109h-230v52q0 35 -40.5 54t-90.5 19 q-72 0 -113.5 -24.5t-41.5 -69.5t57 -78.5t139 -62.5t163 -66t138.5 -106.5t57.5 -165.5q0 -145 -114 -232.5t-288 -87.5q-127 0 -235.5 47.5t-153.5 92.5zM362 1174l-188 278h195l102 -166h4l103 166h196l-190 -278h-222z" />
<glyph unicode="&#x162;" horiz-adv-x="1337" d="M1026 1227h-223v-1227h-72l-20 -90q68 -8 108.5 -47t40.5 -109q0 -92 -63.5 -136t-157.5 -44q-31 0 -62.5 4t-48.5 8l-14 2v144q43 -16 88 -17q90 0 90 58q0 55 -98 55l-43 -4l49 176h-65v1227h-224q-45 0 -45 -45v-88h-235v229q0 72 28.5 101.5t102.5 29.5h1014 q74 0 102.5 -29.5t28.5 -101.5v-229h-236v88q0 45 -45 45z" />
<glyph unicode="&#x163;" horiz-adv-x="757" d="M174 383v455h-135v206h141v285h254v-285h238v-206h-238v-422q0 -113 64.5 -155t142.5 -42l47 4v-227q-33 -6 -80 -6q-63 0 -116 10l-19 -90q68 -8 109 -47t41 -109q0 -94 -63.5 -137t-158.5 -43q-31 0 -62.5 4t-47.5 8l-15 2v144q43 -16 91 -17q88 0 88 58q0 55 -99 55 l-43 -4l60 213q-199 88 -199 346z" />
<glyph unicode="&#x164;" horiz-adv-x="1337" d="M535 0v1227h-224q-45 0 -45 -45v-88h-235v229q0 72 28.5 101.5t102.5 29.5h1014q74 0 102.5 -29.5t28.5 -101.5v-229h-236v88q0 45 -45 45h-223v-1227h-268zM559 1550l-188 279h194l103 -166h4l102 166h197l-191 -279h-221z" />
<glyph unicode="&#x165;" horiz-adv-x="845" d="M180 383v455h-135v206h141v285h254v-285h238v-206h-238v-422q0 -113 64.5 -155t142.5 -42l47 4v-227q-33 -6 -80 -6q-53 0 -102 7t-112.5 31.5t-109.5 64.5t-78 115t-32 175zM557 1454h195q14 -51 14 -104q0 -82 -53 -193h-172q39 104 39 172q0 59 -23 125z" />
<glyph unicode="&#x166;" horiz-adv-x="1337" d="M535 0v604h-304v197h304v426h-224q-45 0 -45 -45v-88h-235v229q0 72 28.5 101.5t102.5 29.5h1014q74 0 102.5 -29.5t28.5 -101.5v-229h-236v88q0 45 -45 45h-223v-426h319v-197h-319v-604h-268z" />
<glyph unicode="&#x167;" horiz-adv-x="757" d="M174 383v106h-135v173h135v176h-135v206h141v285h254v-285h238v-206h-238v-176h238v-173h-238v-83q0 -104 64.5 -145.5t142.5 -41.5l47 4v-227q-33 -6 -80 -6q-53 0 -102 7t-112.5 31.5t-109.5 64.5t-78 115t-32 175z" />
<glyph unicode="&#x168;" horiz-adv-x="1515" d="M186 518v664q0 45 -45 45h-88v227h262q74 0 107 -34t33 -105v-789q0 -141 81.5 -221t221 -80t221.5 80t82 223v787q0 72 32.5 105.5t106.5 33.5h262v-227h-88q-45 0 -45 -45v-664q0 -242 -156.5 -392.5t-412.5 -150.5q-258 0 -416 150.5t-158 392.5zM387 1552 q0 281 234 281q59 0 107 -34t84 -66.5t71 -32.5q41 0 62.5 37t21.5 90h161q0 -281 -233 -281q-59 0 -107.5 34t-84 66.5t-70.5 32.5q-41 0 -62.5 -35.5t-21.5 -91.5h-162z" />
<glyph unicode="&#x169;" horiz-adv-x="1306" d="M166 373v405q0 45 -45 45h-82v221h248q72 0 104.5 -32.5t32.5 -104.5v-481q0 -104 36 -158.5t126 -54.5q135 0 214 102.5t79 249.5v479h260v-780q0 -45 45 -45h82v-219h-240q-137 0 -137 117v28l2 48h-4q-41 -90 -137.5 -154t-223.5 -64q-360 1 -360 398zM268 1176 q0 281 234 280q59 0 107 -33.5t84 -66.5t71 -33q41 0 62.5 37t21.5 90h162q0 -281 -234 -281q-59 0 -107 34t-84 67t-71 33q-41 0 -62.5 -36t-21.5 -91h-162z" />
<glyph unicode="&#x16a;" horiz-adv-x="1515" d="M186 518v664q0 45 -45 45h-88v227h262q74 0 107 -34t33 -105v-789q0 -141 81.5 -221t221 -80t221.5 80t82 223v787q0 72 32.5 105.5t106.5 33.5h262v-227h-88q-45 0 -45 -45v-664q0 -242 -156.5 -392.5t-412.5 -150.5q-258 0 -416 150.5t-158 392.5zM492 1604v172h536 v-172h-536z" />
<glyph unicode="&#x16b;" horiz-adv-x="1306" d="M166 373v405q0 45 -45 45h-82v221h248q72 0 104.5 -32.5t32.5 -104.5v-481q0 -104 36 -158.5t126 -54.5q135 0 214 102.5t79 249.5v479h260v-780q0 -45 45 -45h82v-219h-240q-137 0 -137 117v28l2 48h-4q-41 -90 -137.5 -154t-223.5 -64q-360 1 -360 398zM375 1227v172 h536v-172h-536z" />
<glyph unicode="&#x16c;" horiz-adv-x="1515" d="M186 518v664q0 45 -45 45h-88v227h262q74 0 107 -34t33 -105v-789q0 -141 81.5 -221t221 -80t221.5 80t82 223v787q0 72 32.5 105.5t106.5 33.5h262v-227h-88q-45 0 -45 -45v-664q0 -242 -156.5 -392.5t-412.5 -150.5q-258 0 -416 150.5t-158 392.5zM757.5 1542 q-116.5 0 -204.5 70.5t-88 191.5v25h166v-25q0 -59 38 -90t89 -31t89 32t38 91v23h166v-25q0 -121 -88.5 -191.5t-205 -70.5z" />
<glyph unicode="&#x16d;" horiz-adv-x="1306" d="M166 373v405q0 45 -45 45h-82v221h248q72 0 104.5 -32.5t32.5 -104.5v-481q0 -104 36 -158.5t126 -54.5q135 0 214 102.5t79 249.5v479h260v-780q0 -45 45 -45h82v-219h-240q-137 0 -137 117v28l2 48h-4q-41 -90 -137.5 -154t-223.5 -64q-360 1 -360 398zM641 1165 q-117 0 -205 71t-88 191v25h166v-25q0 -59 38 -89.5t89 -30.5t89 31.5t38 91.5v22h166v-25q0 -121 -88 -191.5t-205 -70.5z" />
<glyph unicode="&#x16e;" horiz-adv-x="1515" d="M186 518v664q0 45 -45 45h-88v227h262q74 0 107 -34t33 -105v-789q0 -141 81.5 -221t221 -80t221.5 80t82 223v787q0 72 32.5 105.5t106.5 33.5h262v-227h-88q-45 0 -45 -45v-664q0 -242 -156.5 -392.5t-412.5 -150.5q-258 0 -416 150.5t-158 392.5zM760 1526 q-74 0 -128 43t-54 117q0 76 54 118.5t128 42.5t128 -43t54 -118q0 -74 -54 -117t-128 -43zM760 1616q31 0 51 19.5t20 50.5q0 33 -20 52t-51 19t-51.5 -19.5t-20.5 -51.5q0 -31 20.5 -50.5t51.5 -19.5z" />
<glyph unicode="&#x16f;" horiz-adv-x="1306" d="M166 373v405q0 45 -45 45h-82v221h248q72 0 104.5 -32.5t32.5 -104.5v-481q0 -104 36 -158.5t126 -54.5q135 0 214 102.5t79 249.5v479h260v-780q0 -45 45 -45h82v-219h-240q-137 0 -137 117v28l2 48h-4q-41 -90 -137.5 -154t-223.5 -64q-360 1 -360 398zM641 1149 q-74 0 -128 43t-54 117q0 76 54 118.5t128 42.5t128 -43t54 -118q0 -74 -54 -117t-128 -43zM641 1239q31 0 51.5 19.5t20.5 50.5q0 33 -20.5 52t-51.5 19t-51.5 -19.5t-20.5 -51.5q0 -31 20.5 -50.5t51.5 -19.5z" />
<glyph unicode="&#x170;" horiz-adv-x="1515" d="M186 518v664q0 45 -45 45h-88v227h262q74 0 107 -34t33 -105v-789q0 -141 81.5 -221t221 -80t221.5 80t82 223v787q0 72 32.5 105.5t106.5 33.5h262v-227h-88q-45 0 -45 -45v-664q0 -242 -156.5 -392.5t-412.5 -150.5q-258 0 -416 150.5t-158 392.5zM825 1550l158 279 h248l-213 -279h-193zM473 1550l148 279h213l-152 -279h-209z" />
<glyph unicode="&#x171;" horiz-adv-x="1306" d="M166 373v405q0 45 -45 45h-82v221h248q72 0 104.5 -32.5t32.5 -104.5v-481q0 -104 36 -158.5t126 -54.5q135 0 214 102.5t79 249.5v479h260v-780q0 -45 45 -45h82v-219h-240q-137 0 -137 117v28l2 48h-4q-41 -90 -137.5 -154t-223.5 -64q-360 1 -360 398zM709 1174 l157 278h248l-213 -278h-192zM356 1174l148 278h213l-152 -278h-209z" />
<glyph unicode="&#x172;" horiz-adv-x="1515" d="M186 518v664q0 45 -45 45h-88v227h262q74 0 107 -34t33 -105v-789q0 -141 81.5 -221t221 -80t221.5 80t82 223v787q0 72 32.5 105.5t106.5 33.5h262v-227h-88q-45 0 -45 -45v-668q0 -313 -295 -485q-59 -35 -107 -88.5t-48 -100.5q6 -61 98 -73l-62 -193q-10 0 -27.5 3 t-60.5 16.5t-75.5 33t-60 57t-27.5 87.5q0 117 110 206v5q-25 -2 -43 -2q-242 0 -393.5 152.5t-151.5 385.5z" />
<glyph unicode="&#x173;" horiz-adv-x="1306" d="M526 -25q-360 0 -360 398v405q0 45 -45 45h-82v221h248q80 0 108.5 -36.5t28.5 -124.5v-457q0 -104 36 -158.5t126 -54.5q135 0 214 102.5t79 249.5v479h260v-780q0 -45 45 -45h82v-219q-115 -96 -115 -160q0 -29 24.5 -47t49.5 -22l26 -4l-61 -193q-10 0 -27.5 3 t-60.5 16.5t-76 33t-60.5 57t-27.5 87.5q0 127 135 225v4h-55q-129 0 -129 117v28l2 45h-6l-12 -22q-7 -14 -37.5 -52t-67.5 -65.5t-101.5 -51.5t-140.5 -24z" />
<glyph unicode="&#x174;" horiz-adv-x="2031" d="M438 0l-301 1182q-10 45 -65 45h-39v227h174q80 0 122 -25.5t58 -93.5l199 -866l24 -154h4q8 70 31 154l264 981h228l249 -981l29 -154h4q6 72 25 154l201 866q14 68 56 93.5t122 25.5h176v-227h-39q-55 0 -66 -45l-303 -1182h-309l-221 823q-25 92 -37 181h-4 q-12 -86 -39 -181l-231 -823h-312zM725 1550l186 279h224l188 -279h-195l-102 166h-4l-104 -166h-193z" />
<glyph unicode="&#x175;" horiz-adv-x="1710" d="M356 0l-250 786q-12 37 -57 37h-29v221h179q66 0 99.5 -23.5t47.5 -82.5l154 -580l20 -110h4q8 55 25 110l192 682h230l194 -682l23 -110h4q6 55 20 110l152 580q14 59 48 82.5t99 23.5h179v-221h-29q-43 0 -57 -37l-250 -786h-293l-178 596l-25 113h-4q-10 -57 -27 -113 l-176 -596h-295zM557 1174l186 278h224l188 -278h-194l-103 165h-4l-104 -165h-193z" />
<glyph unicode="&#x176;" horiz-adv-x="1259" d="M496 0v635l-344 543q-20 31 -36 40t-48 9h-48v227h138q74 0 112.5 -20.5t77.5 -85.5l193 -320l88 -164h4q37 78 88 164l190 320q39 66 78 86t113 20h137v-227h-47q-33 0 -48.5 -9.5t-35.5 -39.5l-344 -543v-635h-268zM334 1550l186 279h223l189 -279h-195l-102 166h-4 l-105 -166h-192z" />
<glyph unicode="&#x177;" horiz-adv-x="1132" d="M102 -139q63 -72 150 -72q117 0 172 133l35 80l-348 784q-14 37 -56 37h-30v221h172q55 0 85.5 -22.5t51.5 -75.5l205 -522l36 -139h5q16 86 34 139l179 522q33 98 139 98h176v-221h-31q-45 0 -59 -37l-375 -944q-53 -135 -153.5 -203.5t-223.5 -68.5q-152 0 -258 100 l-6 6zM272 1174l187 278h223l188 -278h-194l-103 165h-4l-104 -165h-193z" />
<glyph unicode="&#x178;" horiz-adv-x="1259" d="M496 0v635l-344 543q-20 31 -36 40t-48 9h-48v227h138q74 0 112.5 -20.5t77.5 -85.5l193 -320l88 -164h4q37 78 88 164l190 320q39 66 78 86t113 20h137v-227h-47q-33 0 -48.5 -9.5t-35.5 -39.5l-344 -543v-635h-268zM725 1591v238h182v-238h-182zM358 1591v238h181v-238 h-181z" />
<glyph unicode="&#x179;" horiz-adv-x="1204" d="M35 0v170l653 926q59 82 111 131v4q-43 -4 -111 -4h-352q-45 0 -45 -45v-88h-244v221q0 72 33 105.5t106 33.5h944v-168l-653 -928q-59 -84 -110 -131v-4q43 4 110 4h397q45 0 46 45v88h241v-221q0 -74 -32.5 -106.5t-106.5 -32.5h-987zM514 1550l156 279h250l-215 -279 h-191z" />
<glyph unicode="&#x17a;" horiz-adv-x="1046" d="M55 0v139l482 588q20 27 42.5 50.5t34.5 33.5l11 12v4q-31 -4 -97 -4h-188q-45 0 -45 -45v-59h-236v186q0 72 33 105.5t107 33.5h766v-141l-482 -588l-88 -96v-4q31 6 99 6h229q45 0 45 45v58h236v-185q0 -74 -33 -106.5t-105 -32.5h-811zM438 1174l156 278h250 l-215 -278h-191z" />
<glyph unicode="&#x17b;" horiz-adv-x="1204" d="M35 0v170l653 926q59 82 111 131v4q-43 -4 -111 -4h-352q-45 0 -45 -45v-88h-244v221q0 72 33 105.5t106 33.5h944v-168l-653 -928q-59 -84 -110 -131v-4q43 4 110 4h397q45 0 46 45v88h241v-221q0 -74 -32.5 -106.5t-106.5 -32.5h-987zM502 1591v238h225v-238h-225z" />
<glyph unicode="&#x17c;" horiz-adv-x="1046" d="M55 0v139l482 588q20 27 42.5 50.5t34.5 33.5l11 12v4q-31 -4 -97 -4h-188q-45 0 -45 -45v-59h-236v186q0 72 33 105.5t107 33.5h766v-141l-482 -588l-88 -96v-4q31 6 99 6h229q45 0 45 45v58h236v-185q0 -74 -33 -106.5t-105 -32.5h-811zM426 1214v238h225v-238h-225z " />
<glyph unicode="&#x17d;" horiz-adv-x="1204" d="M35 0v170l653 926q59 82 111 131v4q-43 -4 -111 -4h-352q-45 0 -45 -45v-88h-244v221q0 72 33 105.5t106 33.5h944v-168l-653 -928q-59 -84 -110 -131v-4q43 4 110 4h397q45 0 46 45v88h241v-221q0 -74 -32.5 -106.5t-106.5 -32.5h-987zM504 1550l-189 279h195l102 -166 h4l103 166h196l-190 -279h-221z" />
<glyph unicode="&#x17e;" horiz-adv-x="1046" d="M55 0v139l482 588q20 27 42.5 50.5t34.5 33.5l11 12v4q-31 -4 -97 -4h-188q-45 0 -45 -45v-59h-236v186q0 72 33 105.5t107 33.5h766v-141l-482 -588l-88 -96v-4q31 6 99 6h229q45 0 45 45v58h236v-185q0 -74 -33 -106.5t-105 -32.5h-811zM426 1174l-188 278h194 l103 -166h4l102 166h197l-191 -278h-221z" />
<glyph unicode="&#x17f;" horiz-adv-x="706" d="M170 0v838h-129v206h129v31q0 98 30.5 171t76 113t107.5 64.5t111.5 31.5t100.5 7l88 -6v-221q-23 4 -53 4q-47 0 -87 -10t-77 -52t-37 -112v-1065h-260z" />
<glyph unicode="&#x192;" horiz-adv-x="765" d="M-23 -115l-86 6l21 222q20 -4 51 -4q201 0 217 188l35 387h-145v207h163l17 184q8 98 46 171t85 113t110.5 64.5t113.5 31.5t104 7l88 -6l-21 -221q-20 4 -53 4q-201 0 -217 -188l-14 -160h206v-207h-225l-37 -410q-8 -98 -46 -171.5t-86 -113.5t-111.5 -64.5t-113 -32 t-102.5 -7.5z" />
<glyph unicode="&#x218;" horiz-adv-x="1124" d="M66 201l151 188q6 -6 17.5 -18.5t48 -42t75.5 -52t96.5 -41t114.5 -18.5q88 0 148.5 46t60.5 126q0 49 -38 91t-98 74t-133 63.5t-145.5 72.5t-133 89t-98.5 123t-38 167q0 176 137.5 293t348.5 117q94 0 188 -27t169 -95.5t75 -164.5v-135h-242v65q0 49 -58.5 81 t-133.5 32q-92 0 -152.5 -43t-60.5 -113q0 -49 37.5 -89t98 -69.5t133.5 -60.5t145.5 -69.5t133 -87t98.5 -126t38 -174.5q0 -180 -131.5 -304t-352.5 -124q-266 0 -461 185zM465 -113h194q14 -51 15 -104q0 -82 -53 -193h-172q39 104 38 172q1 59 -22 125z" />
<glyph unicode="&#x219;" horiz-adv-x="958" d="M51 162l123 170q14 -16 42 -42t109 -69t160 -43q63 0 102.5 25.5t39.5 77.5q0 39 -56.5 72.5t-137.5 64.5t-163 70.5t-138 110.5t-56 165q0 150 115.5 227.5t289.5 77.5q59 0 117.5 -10t117 -34t95.5 -69t37 -104v-109h-230v52q0 35 -40.5 54t-90.5 19 q-72 0 -113.5 -24.5t-41.5 -69.5t57 -78.5t139 -62.5t163 -66t138.5 -106.5t57.5 -165.5q0 -145 -114 -232.5t-288 -87.5q-127 0 -235.5 47.5t-153.5 92.5zM373 -113h194q14 -51 15 -104q0 -82 -54 -193h-172q39 104 39 172q1 59 -22 125z" />
<glyph unicode="&#x21a;" horiz-adv-x="1337" d="M535 0v1227h-224q-45 0 -45 -45v-88h-235v229q0 72 28.5 101.5t102.5 29.5h1014q74 0 102.5 -29.5t28.5 -101.5v-229h-236v88q0 45 -45 45h-223v-1227h-268zM559 -113h195q14 -51 14 -104q0 -82 -53 -193h-172q39 104 39 172q0 59 -23 125z" />
<glyph unicode="&#x21b;" horiz-adv-x="757" d="M174 383v455h-135v206h141v285h254v-285h238v-206h-238v-422q0 -113 64.5 -155t142.5 -42l47 4v-227q-33 -6 -80 -6q-53 0 -102 7t-112.5 31.5t-109.5 64.5t-78 115t-32 175zM319 -113h195q14 -51 14 -104q0 -82 -53 -193h-172q39 104 39 172q0 59 -23 125z" />
<glyph unicode="&#x2c6;" horiz-adv-x="1026" d="M215 1550l186 279h224l188 -279h-195l-102 166h-4l-104 -166h-193z" />
<glyph unicode="&#x2c7;" horiz-adv-x="1028" d="M401 1550l-188 279h195l102 -166h4l102 166h197l-190 -279h-222z" />
<glyph unicode="&#x2d8;" horiz-adv-x="1060" d="M520 1542q-117 0 -205 70.5t-88 191.5v25h166v-25q0 -59 38 -90t89 -31t89 32t38 91v23h166v-25q0 -121 -88 -191.5t-205 -70.5z" />
<glyph unicode="&#x2d9;" horiz-adv-x="593" d="M184 1591v238h226v-238h-226z" />
<glyph unicode="&#x2da;" horiz-adv-x="786" d="M393 1526q-74 0 -128 43t-54 117q0 76 54 118.5t128 42.5t128 -43t54 -118q0 -74 -54 -117t-128 -43zM393 1616q31 0 51.5 19.5t20.5 50.5q0 33 -20.5 52t-51.5 19t-51 -19.5t-20 -51.5q0 -31 20 -50.5t51 -19.5z" />
<glyph unicode="&#x2db;" horiz-adv-x="776" d="M227 -229q0 68 45 133t90 96l46 33l174 -8q-16 -12 -39 -33t-62 -70t-39 -82q6 -61 99 -73l-62 -193q-10 0 -27.5 3t-60.5 16.5t-75.5 33t-60.5 57.5t-28 87z" />
<glyph unicode="&#x2dc;" horiz-adv-x="1122" d="M197 1552q0 281 233 281q61 0 108.5 -34t83 -66.5t70.5 -32.5q41 0 62.5 37t21.5 90h162q0 -281 -233 -281q-61 0 -108.5 34t-83.5 66.5t-71 32.5q-41 0 -62.5 -35.5t-21.5 -91.5h-161z" />
<glyph unicode="&#x2dd;" horiz-adv-x="1138" d="M543 1550l157 279h248l-213 -279h-192zM190 1550l148 279h213l-152 -279h-209z" />
<glyph unicode="&#x1e9e;" horiz-adv-x="1349" d="M53 0v227h88q45 0 45 45v744q0 193 125 315.5t322 122.5h577v-182l-247 -371l-45 -63v-4l36 -3q141 -18 228.5 -137t87.5 -264q0 -180 -130 -305t-315 -125h-192v227h174q88 0 140 59.5t52 143.5t-52 141.5t-140 57.5h-172v182l182 289q25 41 48.5 72.5l33.5 44.5l10 10 v4q-16 -4 -90 -4h-182q-80 0 -131 -59.5t-51 -147.5v-881q0 -74 -33 -106.5t-107 -32.5h-262z" />
<glyph unicode="&#x2000;" horiz-adv-x="923" />
<glyph unicode="&#x2001;" horiz-adv-x="1847" />
<glyph unicode="&#x2002;" horiz-adv-x="923" />
<glyph unicode="&#x2003;" horiz-adv-x="1847" />
<glyph unicode="&#x2004;" horiz-adv-x="614" />
<glyph unicode="&#x2005;" horiz-adv-x="460" />
<glyph unicode="&#x2006;" horiz-adv-x="307" />
<glyph unicode="&#x2007;" horiz-adv-x="307" />
<glyph unicode="&#x2008;" horiz-adv-x="229" />
<glyph unicode="&#x2009;" horiz-adv-x="368" />
<glyph unicode="&#x200a;" horiz-adv-x="102" />
<glyph unicode="&#x2010;" horiz-adv-x="882" d="M133 471v227h617v-227h-617z" />
<glyph unicode="&#x2011;" horiz-adv-x="882" d="M133 471v227h617v-227h-617z" />
<glyph unicode="&#x2012;" horiz-adv-x="882" d="M133 471v227h617v-227h-617z" />
<glyph unicode="&#x2013;" horiz-adv-x="1357" d="M113 483v203h1132v-203h-1132z" />
<glyph unicode="&#x2014;" horiz-adv-x="1767" d="M113 483v203h1542v-203h-1542z" />
<glyph unicode="&#x2018;" horiz-adv-x="501" d="M86 1032l154 447h176l-97 -447h-233z" />
<glyph unicode="&#x2019;" horiz-adv-x="501" d="M86 1032l96 449h234l-154 -449h-176z" />
<glyph unicode="&#x201a;" horiz-adv-x="501" d="M182 264h234l-154 -446h-176z" />
<glyph unicode="&#x201c;" horiz-adv-x="827" d="M414 1032l151 447h176l-96 -447h-231zM86 1032l154 447h176l-97 -447h-233z" />
<glyph unicode="&#x201d;" horiz-adv-x="827" d="M414 1032l96 449h231l-151 -449h-176zM86 1032l96 449h234l-154 -449h-176z" />
<glyph unicode="&#x201e;" horiz-adv-x="827" d="M414 -182l96 446h231l-151 -446h-176zM182 264h234l-154 -446h-176z" />
<glyph unicode="&#x2020;" horiz-adv-x="872" d="M309 -102v944h-254v202h254v410h250v-410h258v-202h-258v-944h-250z" />
<glyph unicode="&#x2021;" horiz-adv-x="872" d="M309 -102v436h-254v201h254v307h-254v202h254v410h250v-410h258v-202h-258v-307h258v-201h-258v-436h-250z" />
<glyph unicode="&#x2022;" horiz-adv-x="960" d="M479 254q-141 0 -241.5 100.5t-100.5 241.5t100.5 241.5t241.5 100.5q143 0 242.5 -100.5t99.5 -241.5t-99.5 -241.5t-242.5 -100.5z" />
<glyph unicode="&#x2026;" horiz-adv-x="2033" d="M1475 0v260h251v-260h-251zM891 0v260h252v-260h-252zM309 0v260h250v-260h-250z" />
<glyph unicode="&#x202f;" horiz-adv-x="368" />
<glyph unicode="&#x2030;" horiz-adv-x="2398" d="M446.5 831q-139.5 0 -236.5 94.5t-97 229.5q0 133 98 228.5t235.5 95.5t236.5 -95.5t99 -228.5q0 -135 -98 -229.5t-237.5 -94.5zM164 0l1116 1454h240l-1117 -1454h-239zM446.5 1020q57.5 0 97.5 39t40 96q0 55 -40 95t-97.5 40t-96.5 -40t-39 -95q0 -57 39 -96 t96.5 -39zM1671 297q0 133 97.5 228.5t236.5 95.5q137 0 236.5 -95.5t99.5 -228.5t-98.5 -227.5t-237.5 -94.5t-236.5 94.5t-97.5 227.5zM907 297q0 133 97.5 228.5t236.5 95.5q137 0 235.5 -95.5t98.5 -228.5t-97.5 -227.5t-236.5 -94.5t-236.5 94.5t-97.5 227.5zM1870 299 q0 -57 39 -96t96 -39t97 39t40 96q0 55 -40 95t-97 40t-96 -40t-39 -95zM1106 299q0 -57 39 -96t96 -39t97 39t40 96q0 55 -40 95t-97 40t-96 -40t-39 -95z" />
<glyph unicode="&#x2039;" horiz-adv-x="802" d="M430 158l-336 420l336 421h248l-336 -421l336 -420h-248z" />
<glyph unicode="&#x203a;" horiz-adv-x="802" d="M119 158l336 420l-336 421h248l335 -421l-335 -420h-248z" />
<glyph unicode="&#x2044;" horiz-adv-x="860" d="M47 0l565 1454h203l-567 -1454h-201z" />
<glyph unicode="&#x205f;" horiz-adv-x="460" />
<glyph unicode="&#x20ac;" horiz-adv-x="1253" d="M78 512v156h127q-4 35 -4 61l4 66h-127v157h153q68 233 259.5 380t441.5 147l203 -27l-64 -240q-70 20 -145 21q-145 0 -254 -75t-158 -206h510l-33 -157h-514q-4 -31 -4 -62l6 -65h488l-31 -156h-410q47 -131 158 -209t252 -78l197 31l47 -242q-106 -39 -248 -39 q-260 0 -448.5 147.5t-252.5 389.5h-153z" />
<glyph unicode="&#x2122;" horiz-adv-x="2029" d="M874 547v170h46q18 0 20 18l57 719h183l186 -428l29 -86h4q12 51 26 86l189 428h180l57 -719q4 -18 21 -18h47v-170h-154q-57 0 -78.5 17.5t-25.5 74.5l-27 375l2 63h-4l-159 -364h-154l-160 364h-4l2 -63l-27 -375q-4 -57 -24.5 -74.5t-77.5 -17.5h-154zM373 547v735 h-119q-16 0 -16 -16v-60h-168v156q0 53 20.5 72.5t77.5 19.5h606q55 0 75.5 -19.5t20.5 -72.5v-156h-163v60q0 16 -15 16h-123v-735h-196z" />
<glyph unicode="&#x2212;" d="M94 483v203h1082v-203h-1082z" />
<glyph unicode="&#x221e;" horiz-adv-x="1058" d="M530.5 322q-161.5 0 -277.5 115.5t-116 277.5t116 276.5t277.5 114.5t275.5 -113.5t114 -277.5q0 -162 -114 -277.5t-275.5 -115.5z" />
<glyph unicode="&#x2248;" d="M213 659l-100 152q152 156 319 156q102 0 220 -72t186 -72q119 0 219 113l102 -154q-156 -156 -321 -155q-102 0 -220 71.5t-186 71.5q-113 0 -219 -111zM213 240l-100 153q154 154 319 154q102 0 220 -72t186 -72q119 0 219 113l102 -154q-158 -154 -321 -153 q-102 0 -220 71.5t-186 71.5q-110 1 -219 -112z" />
<glyph unicode="&#x2260;" d="M242 129l100 145h-207v201h338l152 219h-490v201h623l155 229l125 -82l-102 -147h199v-201h-330l-152 -219h482v-201h-613l-153 -225z" />
<glyph unicode="&#x2264;" d="M131 502v168l985 438v-227l-710 -293v-4l710 -293v-228zM135 -174h981v-201h-981v201z" />
<glyph unicode="&#x2265;" d="M154 63v228l710 293v4l-710 293v227l985 -438v-168zM154 -174h983v-201h-983v201z" />
<glyph unicode="&#xe000;" horiz-adv-x="1045" d="M0 1045h1045v-1045h-1045v1045z" />
<glyph horiz-adv-x="1298" d="M549 0v1227h-232q-45 0 -45 -45v-86h-241v231q0 70 26.5 98.5t96.5 28.5h1085v-227h-422v-1227h-268z" />
<glyph horiz-adv-x="1298" d="M479 0v1227h-422v227h1086q72 0 98.5 -28.5t26.5 -98.5v-231h-244v86q0 45 -45 45h-231v-1227h-269z" />
<glyph horiz-adv-x="1298" d="M514 0v1227h-453v227h1176v-227h-455v-1227h-268z" />
<glyph horiz-adv-x="686" d="M256 -113h195q14 -51 14 -104q0 -82 -53 -193h-172q39 104 39 172q0 59 -23 125z" />
<glyph horiz-adv-x="2314" d="M86 262v569l258 146v309l543 291l274 -145l271 145l542 -291v-309l254 -146v-569l-254 -147v-312l-542 -288l-271 145l-274 -145l-543 288v312zM193 291l233 -131v-285l487 -258l248 135l242 -135l487 258v285l234 131v510l-234 135v278l-487 259l-242 -132l-248 132 l-487 -259v-278l-233 -135v-510zM293 315v461l203 119v252l440 233l225 -120l219 120l439 -233v-252l204 -119v-461l-204 -122v-248l-439 -234l-219 119l-225 -119l-440 234v248zM887 0h203v391h397v172h-397v309h256q27 0 35 -11t8 -38v-59h182v176q0 55 -23.5 79.5 t-81.5 24.5h-690v-172h111v-872z" />
<glyph horiz-adv-x="1200" d="M600 -25q-143 0 -248.5 57.5t-164 164t-86 237.5t-27.5 295q0 750 526 750t526 -750q0 -164 -27.5 -295t-86 -237.5t-164 -164t-248.5 -57.5zM600 217q256 0 256 512q0 506 -256 506t-256 -506q0 -512 256 -512z" />
<glyph horiz-adv-x="1191" d="M182 0v227h314v807l2 99h-4q-16 -35 -64 -82l-117 -111l-155 164l364 350h242v-1227h313v-227h-895z" />
<glyph horiz-adv-x="1191" d="M76 193q0 106 39 193t101.5 144.5t138 105.5t152.5 90t139.5 86t101 102.5t38.5 129.5q0 86 -58 137.5t-153 51.5q-82 0 -136 -36t-54 -79v-63h-242v143q0 90 73 156.5t171 95.5t199 29q199 0 335 -117t136 -313q0 -137 -73 -244t-176 -171.5t-205.5 -118.5 t-175.5 -116.5t-73 -134.5q0 -37 56 -37h426q45 0 45 45v88h241v-221q0 -74 -32.5 -106.5t-106.5 -32.5h-758q-92 0 -120.5 42t-28.5 151z" />
<glyph horiz-adv-x="1191" d="M78 180l135 201l16 -16q10 -10 47 -38t75 -48.5t98.5 -37t119.5 -16.5q109 0 178.5 61.5t69.5 155.5q0 96 -77.5 154.5t-196.5 58.5h-103l-53 133l246 330q49 74 96 111v4q-45 -6 -129 -6h-182q-45 0 -45 -45v-88h-242v221q0 74 27.5 106.5t99.5 32.5h791v-166l-334 -418 q158 -25 266.5 -136t108.5 -288q0 -193 -140.5 -332t-378.5 -139q-266 0 -460 172z" />
<glyph horiz-adv-x="1191" d="M27 367v170l602 917h315v-860h223v-227h-223v-367h-268v367h-649zM680 594v403l10 158h-4q-41 -78 -78 -131l-227 -336l-74 -96v-4q59 6 127 6h246z" />
<glyph horiz-adv-x="1191" d="M80 176l135 203q4 -6 14.5 -16.5t43 -37t69.5 -47t94.5 -37t116.5 -16.5q119 0 192.5 70t73.5 172q0 117 -91 182.5t-222 65.5q-72 0 -140.5 -16.5t-101.5 -32.5l-33 -17l-94 47l53 619q6 74 37 106.5t101 32.5h536q139 0 140 -139v-221h-244v88q0 45 -45 45h-240 q-41 0 -45 -45l-18 -201l-11 -68h5q68 27 153 27q244 0 388.5 -136t144.5 -341q0 -201 -146.5 -345.5t-392.5 -144.5q-258 0 -440 170z" />
<glyph horiz-adv-x="1191" d="M639 -25q-238 0 -400.5 182.5t-162.5 493.5q0 119 25.5 234.5t81 223.5t132 189.5t188 131t242.5 49.5q182 0 299 -62l-77 -227q-94 45 -205 45q-160 0 -258 -113.5t-127 -281.5h4q37 47 113.5 76.5t156.5 29.5q209 0 337 -140t128 -343q0 -207 -133 -347.5t-344 -140.5z M352 571q0 -137 86 -245.5t199 -108.5q100 0 159.5 69.5t59.5 176.5q0 115 -70.5 190.5t-195.5 75.5q-98 0 -168 -46t-70 -112z" />
<glyph horiz-adv-x="1191" d="M137 0l600 1094q49 90 88 133v4q-27 -4 -100 -4h-350q-45 0 -45 -45v-88h-244v221q0 74 28.5 106.5t98.5 32.5h909v-184l-692 -1270h-293z" />
<glyph horiz-adv-x="1191" d="M74 420q0 63 22.5 123.5t56 102.5t66.5 74t55 46l23 16v4l-17 12q-11 7 -39 33.5t-49.5 58.5t-39 82t-17.5 105q0 164 126 283t341 119q209 0 338 -115t129 -289q0 -180 -141 -315l-17 -15v-4q201 -127 201 -333q0 -174 -144.5 -303.5t-373.5 -129.5q-221 0 -370.5 125 t-149.5 320zM592 881q74 -31 96 -31q37 0 80 65.5t43 141.5q0 82 -57.5 130t-151.5 48q-96 0 -151.5 -47t-55.5 -117t50.5 -111.5t146.5 -78.5zM344 436q0 -98 71.5 -158.5t178.5 -60.5q102 0 175 57.5t73 145.5q0 70 -52.5 114t-156.5 87q-111 49 -131 49q-43 0 -100.5 -73 t-57.5 -161z" />
<glyph horiz-adv-x="1191" d="M147 37l78 227q94 -47 205 -47q160 0 258 113.5t127 283.5h-4q-35 -47 -112.5 -76.5t-157.5 -29.5q-209 0 -337 140t-128 343q0 205 133 346.5t346 141.5q236 0 398.5 -182.5t162.5 -493.5q0 -119 -25.5 -234.5t-81 -223t-132 -189.5t-188 -131.5t-243.5 -49.5 q-182 1 -299 62zM604 725q96 0 166 45t70 113q0 137 -86 244.5t-199 107.5q-100 0 -159.5 -68.5t-59.5 -175.5q0 -115 70.5 -190.5t197.5 -75.5z" />
<glyph horiz-adv-x="2410" d="M561 0v1227h-250q-45 0 -45 -45v-88h-235v229q0 72 28.5 101.5t102.5 29.5h1220q74 0 107 -32.5t33 -104.5v-367l-4 -88h4q6 18 28.5 47t63.5 68t112.5 65.5t155.5 26.5q365 0 365 -397v-408q0 -45 45 -45h80v-219h-246q-74 0 -106.5 33t-32.5 106v479q0 104 -36 158.5 t-128 54.5q-139 0 -220 -100t-81 -252v-479h-260v1182q0 45 -45 45h-388v-1227h-268z" />
<glyph horiz-adv-x="1312" d="M553 0v1227h-242q-45 0 -45 -45v-88h-235v229q0 72 28.5 101.5t102.5 29.5h1120v-227h-461v-1227h-268z" />
<glyph horiz-adv-x="1312" d="M31 1094v229q0 72 28.5 101.5t102.5 29.5h1120v-227h-461v-1227h-71l-21 -90q68 -8 109 -47t41 -109q0 -94 -63.5 -137t-158.5 -43q-31 0 -62.5 4t-45.5 8l-17 2v144q43 -16 89 -17q90 0 90 58q0 55 -99 55l-43 -4l49 176h-65v1227h-242q-45 0 -45 -45v-88h-235z" />
<glyph horiz-adv-x="1312" d="M580 1550l-189 279h195l102 -166h4l103 166h196l-190 -279h-221zM553 0v1227h-242q-45 0 -45 -45v-88h-235v229q0 72 28.5 101.5t102.5 29.5h1120v-227h-461v-1227h-268z" />
<glyph horiz-adv-x="1312" d="M553 0v604h-289v197h289v426h-242q-45 0 -45 -45v-88h-235v229q0 72 28.5 101.5t102.5 29.5h1120v-227h-461v-426h305v-197h-305v-604h-268z" />
<glyph horiz-adv-x="1312" d="M553 0v1227h-242q-45 0 -45 -45v-88h-235v229q0 72 28.5 101.5t102.5 29.5h1120v-227h-461v-1227h-268zM578 -113h194q14 -51 14 -104q0 -82 -53 -193h-172q39 104 39 172q1 59 -22 125z" />
<glyph horiz-adv-x="882" d="M133 598v227h617v-227h-617z" />
<glyph horiz-adv-x="718" d="M166 729q0 492 240 850h221q-229 -383 -230 -831q0 -469 236 -881h-221q-246 360 -246 862z" />
<glyph horiz-adv-x="718" d="M86 -133q236 412 236 881q0 449 -230 831h221q242 -360 242 -850q0 -502 -246 -862h-223z" />
<glyph horiz-adv-x="720" d="M188 6v1434q0 74 33 106.5t107 32.5h264v-188h-137q-45 0 -45 -45v-1246q0 -45 45 -45h137v-188h-264q-74 0 -107 32.5t-33 106.5z" />
<glyph horiz-adv-x="720" d="M129 55h135q45 0 45 45v1246q0 45 -45 45h-135v188h264q74 0 106.5 -33t32.5 -106v-1434q0 -74 -32.5 -106.5t-106.5 -32.5h-264v188z" />
<glyph horiz-adv-x="720" d="M223 207v199q0 166 -137 204l-37 8v228q6 0 18.5 2t42 14t53 34t42 65t18.5 102v176q0 88 28 154.5t65.5 102.5t92 56.5t94.5 26.5t83 6l63 -2v-192q-16 2 -37 2q-37 0 -69.5 -9.5t-65.5 -51.5t-33 -113v-224q0 -172 -139 -247l-29 -13v-4l17.5 -6t41.5 -23.5t51.5 -46 t39.5 -75t18 -107.5v-246q0 -55 17.5 -93t47.5 -53t53.5 -21.5t49.5 -6.5l37 2v-192q-27 -4 -63 -4q-43 0 -83 6t-94.5 26.5t-92 56.5t-65.5 102.5t-28 156.5z" />
<glyph horiz-adv-x="720" d="M72 55q16 -2 37 -2q166 0 165 174v246q0 59 17.5 107.5t43 75t50.5 45t41 24.5l18 6v4q-6 2 -18 7.5t-41 25.5t-51.5 47t-41 75t-18.5 105v224q0 55 -17 92t-46 53t-52.5 22.5t-49.5 6.5l-37 -2v192q27 2 63 2q43 0 83 -6t94.5 -26.5t92 -56.5t65.5 -102.5t28 -154.5 v-176q0 -92 44 -146.5t87 -62.5l43 -8v-228q-6 0 -18.5 -2t-42 -14t-53 -32.5t-42 -63.5t-18.5 -100v-199q0 -90 -28 -156.5t-65.5 -102.5t-92 -56.5t-94.5 -26.5t-83 -6l-63 4v192z" />
<glyph horiz-adv-x="1648" d="M78 723q0 319 222 540.5t548 221.5q293 0 428 -125t135 -320v-512h150v-186h-568q-199 0 -319.5 112.5t-120.5 268.5q0 154 120 264.5t320 110.5h174q-2 80 -90 130t-221 50q-219 0 -370.5 -166t-151.5 -389q0 -231 152.5 -390t402.5 -159v-203q-360 0 -585.5 215 t-225.5 537zM811 729q0 -84 55.5 -142.5t143.5 -58.5h157v402h-153q-90 0 -146.5 -58.5t-56.5 -142.5z" />
<glyph horiz-adv-x="1257" d="M553 700l336 422h248l-336 -422l336 -419h-248zM430 281l-336 419l336 422h248l-336 -422l336 -419h-248z" />
<glyph horiz-adv-x="1257" d="M580 281l335 419l-335 422h247l336 -422l-336 -419h-247zM119 281l336 419l-336 422h248l335 -422l-335 -419h-248z" />
<glyph horiz-adv-x="802" d="M430 281l-336 419l336 422h248l-336 -422l336 -419h-248z" />
<glyph horiz-adv-x="802" d="M119 281l336 419l-336 422h248l335 -422l-335 -419h-248z" />
<glyph horiz-adv-x="1357" d="M113 606v203h1132v-203h-1132z" />
<glyph horiz-adv-x="1767" d="M113 606v203h1542v-203h-1542z" />
<glyph horiz-adv-x="542" d="M145 578v260h252v-260h-252z" />
<glyph horiz-adv-x="974" d="M426 1212v242h250v-242h-250zM68 360q0 92 36.5 168t89 125l105.5 94.5t90 98.5t37 112v76h250v-94q0 -82 -35 -150.5t-84 -114.5l-98 -88q-49 -42 -84 -93.5t-35 -108.5q0 -72 57.5 -122t141.5 -50q51 0 105 22.5t83 43.5l29 22l145 -180q-16 -16 -47 -41t-131 -65 t-207 -40q-182 0 -315 104.5t-133 280.5z" />
<glyph horiz-adv-x="679" d="M215 1212v242h250v-242h-250zM205 0l22 1034h228l20 -1034h-270z" />
<glyph horiz-adv-x="960" d="M479 383q-141 0 -241.5 100.5t-100.5 241.5q0 143 100.5 242.5t241.5 99.5q143 0 242.5 -99.5t99.5 -242.5q0 -141 -99.5 -241.5t-242.5 -100.5z" />
</font>
</defs>
</svg>
